<?xml version="1.0" standalone="no"?>
<!DOCTYPE svg PUBLIC "-//W3C//DTD SVG 1.1//EN" "http://www.w3.org/Graphics/SVG/1.1/DTD/svg11.dtd" >
<svg xmlns="http://www.w3.org/2000/svg">
<metadata>Generated by IcoMoon</metadata>
<defs>
<font id="fonts-icon" horiz-adv-x="1024">
<font-face units-per-em="1024" ascent="960" descent="-64" />
<missing-glyph horiz-adv-x="1024" />
<glyph unicode="&#x20;" horiz-adv-x="512" d="" />
<glyph unicode="&#xe900;" glyph-name="hanger-with-clothes" horiz-adv-x="1104" d="M1046.469 300.148l-429.216 388.944c-4.814 4.376-10.116 8.063-15.655 11.27v62.889h-4.090c-2.829 8.638-9.647 15.916-21.551 18.652-26.607 6.12-55.952 14.865-74.083 36.565-8.762 10.496-11.48 24.327-7.743 31.617 21.237 41.407 82.991 28.787 118.458 13.469 37.779-16.331 70.71 38.743 32.595 55.209-65.827 28.434-172.916 41.239-208.354-39.84-27.366-62.577 13.957-110.844 66.508-138.225v-39.848c-5.885-3.334-11.532-7.121-16.643-11.741l-429.143-388.961c-36.051-32.676-23.949-59.159 27.030-59.159h204.059v68.958h-117.567l361.991 328.041c4.654 4.225 11.565 6.641 18.939 6.641 7.385 0 14.296-2.414 18.95-6.641l361.983-328.041h-119.902v-68.958h206.384c50.975 0 63.082 26.483 27.055 59.159zM323.119 309.946v-373.945l108.041 32.73-1.001 206.299c-0.085 19.022 15.28 34.58 34.311 34.645 0.050 0 0.118 0 0.168 0 18.964 0 34.395-15.321 34.479-34.311l0.9-185.777 278.538 84.364v305.963h-455.435v-69.968z" />
<glyph unicode="&#xe901;" glyph-name="interface" d="M771.042 418.524v438.869h-655.035v-818.792h301.313c21.618 0 39.302-17.685 39.302-39.302s-17.685-39.302-39.302-39.302h-340.618c-21.618 0-39.302 17.685-39.302 39.302v897.398c0 21.618 17.687 39.302 39.302 39.302h733.636c21.618 0 39.302-17.685 39.302-39.302v-478.174c0-21.618-17.685-39.302-39.302-39.302s-39.3 17.685-39.3 39.302zM973.448 322.889c-16.378 14.413-41.267 13.101-55.677-3.274l-215.507-239.743-108.080 104.152c-15.719 15.066-40.611 14.413-55.677-1.312s-14.413-40.611 1.312-55.677l137.556-132.316c7.205-7.205 17.031-11.135 27.511-11.135 0.653 0 0.653 0 1.312 0 10.479 0.653 20.959 5.24 27.511 13.101l242.364 269.875c15.066 17.031 13.756 41.921-2.619 56.334zM626.935 706.737h-353.716c-21.618 0-39.302-17.685-39.302-39.302s17.685-39.302 39.302-39.302h353.716c21.618 0 39.302 17.685 39.302 39.302s-17.685 39.302-39.302 39.302zM666.239 451.274c0 21.618-17.685 39.302-39.302 39.302h-353.718c-21.618 0-39.302-17.685-39.302-39.302s17.685-39.302 39.302-39.302h353.716c21.618 0 39.305 17.685 39.305 39.302zM273.216 280.965c-21.618 0-39.302-17.685-39.302-39.302s17.685-39.302 39.302-39.302h104.806c21.618 0 39.302 17.685 39.302 39.302s-17.685 39.302-39.302 39.302h-104.806z" />
<glyph unicode="&#xe902;" glyph-name="ironing-board" d="M548.502 186.104v410.5h-326.604v-410.5c0-23.659 19.246-42.905 42.905-42.905h240.792c23.659 0 42.908 19.246 42.908 42.905zM1024 560.099c0 20.128-16.377 36.502-36.502 36.502h-385.203v-73.004h385.2c20.128 0 36.505 16.374 36.505 36.502zM0 560.099c0-20.128 16.374-36.502 36.502-36.502h131.603v73.004h-131.603c-20.128 0.003-36.502-16.374-36.502-36.502zM429.701 650.397h498.405c18.294 0 31.23 17.898 25.49 35.268l-74.411 225.208c-5.199 15.736-19.908 26.369-36.485 26.369h-231.252c-35.512 0-64.688-27.631-67.16-62.526-1.593-22.466 15.039-42.822 37.557-43.222 18.242-0.321 33.644 12.067 37.929 28.9h195.153l23.562-71.315h-255.51c-79.755 0-145.542-60.926-153.279-138.681zM602.295 162.745l267.502-196.632c6.827-4.965 14.732-7.354 22.569-7.354 11.871 0 23.586 5.489 31.103 15.829 12.485 17.163 8.692 41.194-8.471 53.672l-305.973 222.525 301.149 219.015h-130.651l-177.224-128.89v-178.166zM256.952 89.403l-84.551-61.143c-17.163-12.481-20.956-36.509-8.475-53.672 7.52-10.337 19.228-15.829 31.103-15.829 7.84 0 15.75 2.389 22.569 7.354l169.525 123.29c0.003 0-127.579-0.207-130.172 0z" />
<glyph unicode="&#xe903;" glyph-name="logo" d="M448 352c-114.692 0-208-93.308-208-208s93.308-208 208-208 208 93.308 208 208-93.308 208-208 208zM448 0c-79.402 0-144 64.598-144 144s64.598 144 144 144 144-64.598 144-144-64.598-144-144-144zM448 256c-61.756 0-112-50.244-112-112 0-17.672 14.328-32 32-32s32 14.328 32 32c0 26.466 21.534 48 48 48 17.672 0 32 14.328 32 32s-14.328 32-32 32zM640 848c-252.166 0-436.518-240.228-370.818-484.026 4.596-17.064 22.16-27.17 39.224-22.572s27.17 22.16 22.572 39.224c-54.728 203.086 98.786 403.374 309.022 403.374 176.45 0 320-143.552 320-320 0-150.148-102.036-278.402-248.128-311.888-17.226-3.948-27.992-21.114-24.042-38.34 3.948-17.224 21.11-27.988 38.34-24.042 172.398 39.514 297.83 193.85 297.83 374.27 0 211.738-172.262 384-384 384zM201.972 548.114c-79.946 17.582-137.972 89.872-137.972 171.886 0 97.046 78.954 176 176 176 55.44 0 106.526-25.34 140.158-69.522 10.704-14.062 30.784-16.784 44.844-6.080 14.062 10.704 16.786 30.782 6.080 44.844-45.84 60.22-115.488 94.758-191.082 94.758-132.336 0-240-107.664-240-240 0-114.414 80.314-210.66 188.226-234.392 17.184-3.784 34.314 7.048 38.126 24.38 3.796 17.26-7.118 34.33-24.38 38.126zM864 832h32v-32c0-17.672 14.326-32 32-32s32 14.328 32 32v32h32c17.674 0 32 14.328 32 32s-14.326 32-32 32h-32v32c0 17.672-14.326 32-32 32s-32-14.328-32-32v-32h-32c-17.674 0-32-14.328-32-32s14.326-32 32-32zM176 272h-32v32c0 17.672-14.328 32-32 32s-32-14.328-32-32v-32h-32c-17.672 0-32-14.328-32-32s14.328-32 32-32h32v-32c0-17.672 14.328-32 32-32s32 14.328 32 32v32h32c17.672 0 32 14.328 32 32s-14.328 32-32 32zM640 720c-141.16 0-256-114.84-256-256 0-17.672 14.328-32 32-32s32 14.328 32 32c0 105.87 86.13 192 192 192 17.674 0 32 14.328 32 32s-14.326 32-32 32zM96 720c0-17.672 14.328-32 32-32s32 14.328 32 32c0 44.112 35.888 80 80 80 17.672 0 32 14.328 32 32s-14.328 32-32 32c-79.402 0-144-64.598-144-144z" />
<glyph unicode="&#xe904;" glyph-name="pilesos" horiz-adv-x="1255" d="M1204.61-38.15h-316.577c-8.295 32.025 5.017 61.154 22.957 74.658 18.136 13.697 53.437 6.752 84.498 10.803-2.7 13.697-6.367 30.867-12.347 43.020-129.448 263.332-259.861 526.471-389.307 789.803-7.138 14.662-22.571 23.341-38.777 22.378-18.136-0.964-36.654-0.193-56.526-0.193v54.98c35.881 0 72.537 2.7 108.42-1.543 11.189-1.35 22.957-19.871 29.517-33.182 92.407-185.2 183.85-370.98 275.68-556.567 39.934-80.833 80.446-161.472 119.416-242.883 10.803-22.571 21.22-46.686 31.446-76.781 13.311 0 26.43-0.387 46.686-0.579 32.605-0.387 46.3-7.717 64.627-30.867 15.047-18.906 20.063-28.937 32.989-49.194-1.35-1.543-1.737-1.93-2.7-3.859zM451.846 931.261c0-13.119 0-22.764 0-28.552-30.48-11.576-60.384-18.906-86.427-33.376-51.703-28.552-69.836-77.359-53.824-133.884 16.59-58.647 54.98-103.404 95.687-146.424 105.14-111.122 211.244-221.469 315.613-333.169 19.292-20.641 35.11-45.143 48.422-70.223 40.899-77.938 10.225-131.376-79.867-138.129 0 10.417 0 20.835 0 31.446 1.157 0.771 2.509 2.316 4.052 2.509 59.419 7.909 75.624 34.531 45.143 86.235-23.15 39.161-52.28 75.816-83.341 109.384-100.896 108.806-204.879 214.717-305.388 323.716-25.079 27.201-45.722 60.576-61.347 94.336-47.844 104.174-0.193 199.862 110.927 228.414 15.819 3.666 32.218 4.823 50.35 7.717zM225.554 291.739c-98.195 0-177.87-79.674-177.87-177.87s79.674-177.87 177.87-177.87c98.195 0 177.87 79.674 177.87 177.87s-79.674 177.87-177.87 177.87zM225.554 17.023c-53.437 0-96.845 43.407-96.845 96.845s43.407 96.845 96.845 96.845c53.437 0 96.845-43.407 96.845-96.845s-43.407-96.845-96.845-96.845zM623.35 222.096c-55.946 40.706-110.156 83.726-167.26 122.503-21.22 14.469-48.037 27.78-72.923 28.937-83.726 3.666-167.839 2.122-251.757 1.157-21.414-0.193-37.426-12.732-39.356-35.304-1.737-21.799-0.579-43.986-0.387-69.643 37.040 33.376 85.848 53.824 139.672 53.824 114.978 0 208.351-93.179 208.351-208.351 0-42.827-12.926-82.762-35.11-115.751 76.587 0 152.599-0.964 228.607 0.771 23.921 0.579 33.182 20.448 33.568 43.214 0.387 30.48-0.771 60.962 0.387 91.25 0.579 37.234-13.89 65.593-43.792 87.392z" />
<glyph unicode="&#xe905;" glyph-name="reading-book" horiz-adv-x="1616" d="M1453.308 606.289l-565.625-494.541c-35.408-30.952-70.872-45.574-105.321-43.401-50.34 3.174-83.706 41.485-83.987 41.834l-534.785 505.054-23.507-19.022 533.15-503.382c5.457-6.22 44.883-48.369 106.476-52.37 3.174-0.197 6.331-0.324 9.513-0.324 41.049 0 81.729 17.388 121.058 51.798l565.65 494.565-22.617 19.785zM1214.126 701.706c0-55.918-45.329-101.247-101.247-101.247s-101.247 45.329-101.247 101.247c0 55.918 45.329 101.247 101.247 101.247s101.247-45.329 101.247-101.247zM725.161 192.929c8.464-10.972 19.331-20.417 31.713-27.384 4.244-2.833 8.512-4.963 12.861-6.205 29.47-11.647 64.667-9.561 94.942 16.627 90.175 77.98 180.255 155.974 270.362 233.968 4.809 4.16 8.882 8.512 12.45 12.929 61.2 54.739 122.383 109.523 183.61 164.263 46.506 41.613-22.026 109.629-68.278 68.278-44.205-39.569-88.413-79.136-132.678-118.704-32.687 27.229-82.73 36.065-123.795 0.55-27.358-23.676-54.739-47.364-82.096-71.041-7.967 26.751-14.975 53.804-21.136 81.119l10.123 5.895-1.831 3.088 16.414 15.326-112.003 190.902-37.087-58.916 2.199-3.741-0.479-0.308 58.616-100.204c-21.675-7.6-39.498-28.384-33.586-57.152 10.054-49.084 23.138-97.269 39.456-144.607-20.374-17.627-40.724-35.212-61.095-52.866-18.585 63.4-37.257 126.84-55.896 190.267-5.895 20.263-24.875 35.974-46.492 35.436-73.24-1.875-146.435-3.765-219.627-5.656-2.354-0.042-4.483-0.479-6.657-0.83-18.909 16.91-37.829 33.868-56.742 50.797-46.225 41.372-114.726-26.664-68.251-68.251 131.719-117.833 263.34-235.715 394.987-353.571zM815.554 720.072l-22.095-12.861 22.052 34.972 98.948-168.635-8.556-7.967-90.346 154.49zM645.59 473.004c10.575-35.974 21.136-71.887 31.669-107.865-39.307 35.154-78.64 70.407-117.943 105.628 28.753 0.761 57.523 1.5 86.273 2.241z" />
<glyph unicode="&#xe906;" glyph-name="sewing-machine" d="M220.815 356.654v73.269h-62.771v-73.269c0-17.332 14.053-31.385 31.385-31.385s31.385 14.053 31.385 31.385zM892.756 109.677h-848.479c-16.394 0-29.682-13.288-29.682-29.682s13.288-29.682 29.682-29.682h848.482c16.394 0 29.682 13.288 29.682 29.682-0.003 16.394-13.291 29.682-29.686 29.682zM751.399 729.721c-22.307 0-40.457-18.149-40.457-40.457s18.149-40.457 40.457-40.457c22.307 0 40.457 18.149 40.457 40.457s-18.149 40.457-40.457 40.457zM239.399 845.688h66.405v-129.776h-66.405v129.776zM851.506 845.688h-492.41v-156.424c0-14.715-11.929-26.648-26.648-26.648h-119.698c-14.715 0-26.648 11.929-26.648 26.648v156.424h-29.075c-16.901 0-33.654-4.61-47.59-14.174-25.479-17.491-38.357-47.259-34.788-76.803l35.402-243.75c3.475-23.942 24-41.698 48.194-41.698h119.229c15.646 0 28.331 12.684 28.331 28.331 0 50.462 40.905 91.367 91.367 91.367h205.548c50.462 0 91.367-40.908 91.367-91.367v-248.611c0-14.715-11.929-26.648-26.648-26.648h-636.704c-15.794 0-29.606-11.888-30.665-27.645-1.162-17.284 12.574-31.72 29.617-31.72h848.258c24.576 0 44.494 19.921 44.494 44.494v567.293c0 39.174-31.758 70.932-70.932 70.932zM751.399 595.515c-51.696 0-93.749 42.056-93.749 93.753s42.056 93.749 93.749 93.749c51.696 0 93.749-42.056 93.749-93.749s-42.056-93.753-93.749-93.753zM1003.796 655.365h-12.998v-186.103h12.998c11.14 0 20.204 9.064 20.204 20.204v145.694c0 11.14-9.064 20.204-20.204 20.204z" />
<glyph unicode="&#xe907;" glyph-name="shoes" d="M347.354 150.048c0-20.050 0-38.836 0-58.163-2.709-0.361-4.696-0.723-6.683-0.723-83.271 0-166.723 0-249.994-0.181-6.864 0-9.935 1.987-12.102 8.49-12.825 37.21-18.966 75.685-20.231 114.701-0.903 29.443 0.903 58.886 1.626 88.329 0 1.445 0.542 2.89 0.903 5.238 12.644-1.987 24.927-3.974 37.21-5.78 61.595-9.573 123.552-13.547 186.050-8.851 29.985 2.348 59.428 7.767 88.148 16.979 3.432 1.084 8.67-0.723 12.102-2.709 49.493-29.624 98.625-59.608 147.937-89.413 38.475-23.301 79.478-39.739 124.094-45.158 63.221-7.587 115.243 12.644 153.898 64.485 1.264 1.626 2.529 3.251 3.071 3.793 30.707-4.877 60.692-9.032 90.316-14.451 47.145-8.67 63.402-42.81 58.705-84.355-1.626-14.451-6.683-28.54-9.935-42.81-1.445-6.683-5.058-8.851-11.922-8.851-67.917-0.723-136.016-2.529-203.933-2.89-45.339-0.361-90.858 0-136.196 1.987-16.076 0.723-31.972 6.864-48.048 10.838-65.389 16.076-130.777 31.972-196.346 48.048-2.529 0.723-4.877 0.903-8.67 1.445zM917.247 434.182c-184.786 96.818-369.030 193.456-553.274 290.094 18.424 42.629 47.687 71.891 94.29 79.478 25.288 4.155 49.312 0.542 72.433-11.741 94.832-49.854 189.844-99.167 284.675-148.84 20.231-10.477 40.642-20.592 60.512-31.791 42.629-23.843 64.847-60.331 65.027-109.463 0.361-21.676-8.67-46.422-23.663-67.737zM422.497 475.366c17.883-22.94 36.849-47.325 56.357-72.433-8.67-9.754-18.605-21.134-29.082-33.056 9.573-8.309 18.786-16.437 28.901-24.927 10.477 11.741 20.592 22.94 31.069 34.501 8.851-6.322 16.979-12.283 26.372-19.147-8.67-10.838-17.341-21.315-26.372-32.694 10.838-7.767 21.315-15.173 32.514-23.121 10.296 11.38 20.592 22.76 30.707 33.959 9.212-5.058 17.702-9.754 26.914-14.812-8.128-12.102-16.076-23.843-24.566-36.307 11.019-7.225 21.495-13.909 32.694-21.315 9.212 13.186 18.244 26.192 26.553 38.113 45.519-16.979 91.038-33.778 138.544-51.48-8.309-7.225-16.257-15.715-25.65-22.218-26.553-18.063-56.718-20.411-87.426-16.979-50.938 5.6-94.29 29.262-136.738 56.176-45.158 28.54-91.038 55.815-136.738 83.452-2.89 1.806-7.587 2.89-10.296 1.806-48.951-21.315-100.431-24.024-152.814-23.482-52.383 0.723-104.224 7.587-155.524 16.979-0.542 0.181-1.084 0.542-3.432 1.987 4.696 24.927 9.754 50.577 14.812 77.13 13.367-2.348 25.469-4.335 37.391-6.322 57.441-9.754 115.243-14.451 173.226-6.503 41.726 5.78 81.645 17.16 115.062 44.797 6.141 5.6 12.464 11.56 17.521 15.896zM690.735 275.768c-12.102 5.961-23.301 11.56-34.862 17.341-7.406-14.631-14.089-28.179-21.315-42.448 11.922-5.961 23.121-11.56 34.681-17.341 7.406 14.27 14.27 27.817 21.495 42.448zM617.94 491.984c-11.56 6.141-22.218 11.741-33.778 17.883 12.644 24.385 25.288 48.409 38.113 73.156 11.38-5.961 22.398-11.56 33.959-17.702-12.825-24.566-25.288-48.59-38.294-73.336zM695.612 450.077c-11.741 6.141-22.398 11.741-33.959 17.883 12.825 24.566 25.288 48.409 38.294 73.156 11.199-5.961 22.218-11.56 33.959-17.702-12.825-24.566-25.288-48.409-38.294-73.336zM377.881 617.161c-11.922 6.322-22.398 11.741-33.959 17.883 12.825 24.566 25.288 48.59 38.294 73.156 11.56-5.961 22.398-11.741 33.959-17.702-12.825-24.566-25.288-48.59-38.294-73.336zM780.328 499.932c11.56-6.141 22.037-11.56 33.778-17.702-12.644-24.205-25.108-48.229-38.113-73.156-11.199 5.78-22.218 11.56-33.959 17.702 12.644 24.205 25.288 48.229 38.294 73.156zM822.235 385.592c12.825 24.566 25.288 48.409 38.294 73.156 11.38-5.961 22.398-11.741 33.959-17.702-12.825-24.566-25.469-48.59-38.294-73.156-11.38 5.78-22.037 11.38-33.959 17.702zM537.559 533.168c-11.56 6.141-22.398 11.741-33.959 17.702 12.825 24.385 25.288 48.409 38.294 73.156 11.38-5.961 22.218-11.741 33.959-17.702-12.825-24.566-25.288-48.229-38.294-73.156zM424.303 593.86c13.005 24.927 25.469 48.59 38.475 72.975 11.56-5.961 22.218-11.56 33.959-17.702-12.825-24.566-25.469-48.59-38.294-73.156-11.922 6.141-22.579 11.922-34.139 17.883z" />
<glyph unicode="&#xe908;" glyph-name="tag-1" d="M673.097 896.659h-129.425v63.341h-63.341v-63.341h-129.425l-206.448-193.446v-767.213h735.086v767.213l-206.448 193.446zM816.201-0.657h-608.402v676.42l168.147 157.555h104.384v-175.501h63.341v175.501h104.384l168.147-157.557v-676.418zM489.162 435.183c0 52.389-42.622 95.012-95.012 95.012s-95.012-42.622-95.012-95.012 42.622-95.012 95.012-95.012 95.012 42.622 95.012 95.012zM362.48 435.183c0 17.463 14.207 31.671 31.671 31.671s31.671-14.207 31.671-31.671c0-17.463-14.207-31.671-31.671-31.671s-31.671 14.207-31.671 31.671zM534.838 199.484c0-52.389 42.622-95.012 95.012-95.012s95.012 42.622 95.012 95.012-42.622 95.012-95.012 95.012-95.012-42.622-95.012-95.012zM661.52 199.484c0-17.463-14.207-31.671-31.671-31.671s-31.671 14.207-31.671 31.671 14.207 31.671 31.671 31.671 31.671-14.207 31.671-31.671zM388.545 149.084l-44.789 44.789 291.696 291.696 44.789-44.789-291.696-291.696z" />
<glyph unicode="&#xe909;" glyph-name="technology" d="M928.001 31.999c0-48.605-39.407-87.999-87.999-87.999h-655.998c-48.594 0-87.999 39.394-87.999 87.999v832.002c0 48.605 39.406 87.999 87.999 87.999h655.998c48.594 0 87.999-39.394 87.999-87.999v-832.002zM880.002 864.001c0 22.094-17.905 39.999-39.999 39.999h-655.998c-22.094 0-39.999-17.905-39.999-39.999v-832.002c0-22.094 17.905-39.999 39.999-39.999h655.998c22.094 0 39.999 17.905 39.999 39.999v832.002zM897.167 647.997h-784.003c-13.25 0-17.168 10.739-17.168 24v184.306c0 49.182 39.248 95.696 87.981 95.696h649.921c51.426 0 94.093-50.431 94.093-95.696v-184.306c0-13.261-17.585-24-30.835-24zM143.998 696h735.997v160.303c0 21.599-24.35 47.697-46.094 47.697h-649.921c-21.873 0-39.982-25.41-39.982-47.697v-160.303zM376.002 655.997c-13.25 0-24 10.739-24 24v239.998c0 13.262 10.75 24 24 24s24-10.739 24-24v-239.998c0-13.261-10.75-24-24-24zM819.283 796.173c0-22.863-18.511-41.392-41.374-41.392s-41.374 18.529-41.374 41.392c0 22.846 18.511 41.374 41.374 41.374s41.374-18.529 41.374-41.374zM703.426 796.173c0-22.863-18.511-41.392-41.374-41.392s-41.374 18.529-41.374 41.392c0 22.846 18.511 41.374 41.374 41.374s41.374-18.529 41.374-41.374zM587.569 796.173c0-22.863-18.546-41.392-41.374-41.392-22.863 0-41.374 18.529-41.374 41.392 0 22.846 18.511 41.374 41.374 41.374 22.835 0 41.374-18.529 41.374-41.374zM499.63 66.655c-126.752 0-229.87 103.101-229.87 229.856s103.119 229.856 229.87 229.856c126.734 0 229.87-103.101 229.87-229.856s-103.137-229.856-229.87-229.856zM499.63 478.368c-100.287 0-181.871-81.566-181.871-181.853 0-100.27 81.584-181.853 181.871-181.853 100.27 0 181.871 81.584 181.871 181.853 0 100.287-81.602 181.853-181.871 181.853zM412.033 220.605c-56.127 0-104.85 32.734-129.519 58.942-9.090 9.649-8.641 24.833 1.026 33.923 9.585 9.090 24.769 8.659 33.87-0.962v0c3.327-3.473 82.243-84.351 163.022-16.658 91.425 76.497 187.506 33.17 225.507-0.431 9.934-8.769 10.878-23.936 2.098-33.87-8.787-9.923-23.953-10.867-33.87-2.098-3.17 2.768-80.672 68.433-162.911-0.413-33.439-27.985-67.505-38.432-99.215-38.432zM628.946 249.966c0-9.154-7.405-16.559-16.559-16.559-9.136 0-16.541 7.405-16.541 16.559 0 9.136 7.405 16.541 16.541 16.541 9.154 0 16.559-7.405 16.559-16.541zM612.387 183.758c0-9.136-7.405-16.559-16.541-16.559s-16.559 7.423-16.559 16.559 7.423 16.541 16.559 16.541c9.136 0 16.541-7.405 16.541-16.541zM546.19 233.407c0-9.136-7.405-16.541-16.559-16.541s-16.559 7.405-16.559 16.541c0 9.154 7.405 16.559 16.559 16.559s16.559-7.405 16.559-16.559zM513.072 167.199c0-9.136-7.405-16.541-16.541-16.541s-16.541 7.405-16.541 16.541c0 9.154 7.405 16.559 16.541 16.559s16.541-7.405 16.541-16.559zM413.758 200.306c0-9.136-7.405-16.541-16.541-16.541s-16.541 7.405-16.541 16.541 7.405 16.559 16.541 16.559c9.136 0 16.541-7.423 16.541-16.559z" />
<glyph unicode="&#xe90a;" glyph-name="59252" d="M512 960c-282.317 0-512-229.683-512-512s229.683-512 512-512 512 229.683 512 512-229.683 512-512 512zM512 44.945c-222.243 0-403.066 180.802-403.066 403.055s180.823 403.055 403.066 403.055 403.066-180.802 403.066-403.055-180.823-403.055-403.066-403.055zM778.834 463.809h-230.094v276.657c0 23.281-18.876 42.157-42.157 42.157s-42.157-18.876-42.157-42.157v-318.814c0-23.281 18.876-42.157 42.157-42.157h272.252c23.281 0 42.157 18.876 42.157 42.157s-18.876 42.157-42.157 42.157z" />
<glyph unicode="&#xe90b;" glyph-name="59439" d="M767.965 959.787l-132.79 0.213c-149.185 0-245.595-98.913-245.595-252.008v-116.192h-133.514c-11.537 0-20.88-9.353-20.88-20.891v-168.35c0-11.537 9.353-20.88 20.88-20.88h133.514v-424.8c0-11.537 9.343-20.88 20.88-20.88h174.198c11.537 0 20.88 9.353 20.88 20.88v424.8h156.109c11.537 0 20.88 9.343 20.88 20.88l0.064 168.35c0 5.54-2.205 10.845-6.115 14.765s-9.236 6.125-14.776 6.125h-156.163v98.498c0 47.342 11.282 71.375 72.952 71.375l89.453 0.032c11.527 0 20.869 9.353 20.869 20.88v156.322c0 11.516-9.332 20.859-20.848 20.88z" />
<glyph unicode="&#xe90c;" glyph-name="64484" d="M463.534 101.095c-46.427-46.427-121.76-46.427-168.165 0l-260.549 260.549c-46.427 46.405-46.427 121.737 0 168.142 46.405 46.427 121.737 46.427 168.165 0l155.236-155.213c11.719-11.696 30.742-11.696 42.484 0l420.333 420.333c46.405 46.427 121.737 46.427 168.165 0 22.295-22.295 34.82-52.544 34.82-84.071s-12.526-61.776-34.82-84.071l-525.668-525.668z" />
<glyph unicode="&#xe90d;" glyph-name="254434" d="M839.851 543.087l-568.792 389.393c-26.268 17.995-52.735 27.52-74.734 27.52-42.531 0-68.84-34.134-68.84-91.27v-841.592c0-57.070 26.276-91.138 68.708-91.138 22.032 0 48.076 9.532 74.402 27.578l569.057 389.385c36.596 25.083 56.863 58.835 56.863 95.083 0.008 36.223-20.026 69.968-56.664 95.042z" />
<glyph unicode="&#xe90e;" glyph-name="483947" d="M941.835 287.861c-62.693 0-124.251 9.805-182.584 29.083-28.584 9.749-63.723 0.805-81.168-17.112l-115.139-86.917c-133.528 71.277-215.779 153.501-286.083 286.027l84.36 112.139c21.917 21.888 29.779 53.861 20.36 83.861-19.36 58.64-29.195 120.168-29.195 182.888 0.003 45.309-36.859 82.171-82.165 82.171h-188.053c-45.307 0-82.168-36.861-82.168-82.168 0-519.333 422.501-941.832 941.835-941.832 45.307 0 82.168 36.861 82.168 82.168v187.528c-0.003 45.304-36.864 82.165-82.168 82.165z" />
<glyph unicode="&#xe90f;" glyph-name="484169" d="M512 960c-211.75 0-384-172.27-384-384 0-283.292 354.292-620 369.376-634.208 4.124-3.854 9.374-5.792 14.624-5.792s10.5 1.938 14.626 5.792c15.082 14.208 369.374 350.916 369.374 634.208 0 211.73-172.25 384-384 384zM512 362.666c-117.626 0-213.334 95.708-213.334 213.334s95.71 213.334 213.334 213.334 213.334-95.71 213.334-213.334-95.708-213.334-213.334-213.334z" />
<glyph unicode="&#xe910;" glyph-name="486676" d="M770.924 735.818h-200.232c-42.474 0-77.032-34.556-77.032-77.032 0-42.474 34.558-77.030 77.032-77.030h200.236c42.476 0 77.030 34.556 77.030 77.032-0.004 42.474-34.558 77.030-77.034 77.030zM770.924 641.789h-200.232c-9.374 0-16.998 7.624-16.998 16.998 0 9.372 7.624 16.996 16.998 16.996h200.236c9.374 0 16.996-7.624 16.996-16.998-0.004-9.372-7.626-16.996-17-16.996zM816.4 837.502h-344.957c-115.432 0-223.118-62.026-281.041-161.87l-190.402-328.207h851.956v124.208l96.228 96.596v137.488c0 7.314-0.626 14.482-1.78 21.476h77.594v60.034h-104.162c-24.152 30.588-61.526 50.274-103.436 50.274zM791.922 407.459h-687.689l27.010 46.558h660.681v-46.558zM888.152 593.029l-78.678-78.98h-643.405l76.264 131.458c47.22 81.396 135.010 131.96 229.112 131.96h344.957c39.564 0 71.75-32.188 71.75-71.75v-112.688zM706.263 301.903l-54.154-25.904c3.886-8.126 5.86-16.87 5.86-25.982 0-33.262-27.062-60.324-60.326-60.324-8.34 0-16.424 1.678-24.028 4.984l-36.614 15.932-5.128-39.6c-3.874-29.916-29.578-52.474-59.794-52.474-29.902 0-55.576 22.29-59.72 51.85l-5.328 38.038-35.622-14.364c-7.184-2.898-14.764-4.366-22.53-4.366-33.264 0-60.326 27.062-60.326 60.324 0 8.156 1.59 16.056 4.728 23.474l-55.294 23.386c-6.284-14.858-9.47-30.624-9.47-46.858 0-66.366 53.992-120.358 120.36-120.358 4.39 0 8.756 0.236 13.080 0.706 18.872-42.57 61.72-71.862 110.12-71.862 48.678 0 91.494 29.364 110.256 72.12 5.046-0.642 10.154-0.964 15.308-0.964 66.366 0 120.36 53.992 120.36 120.358-0.002 18.144-3.952 35.602-11.738 51.884zM473.259 247.267c0 0-25.956-24.556-25.956-50.476 0-12.976 9.566-23.496 25.956-23.496 16.064 0 25.954 10.52 25.954 23.496 0 25.92-25.954 50.476-25.954 50.476zM338.897 280.539c-9.43-8.916-10.502-23.092 0.76-35.002 11.034-11.67 25.474-11.632 34.904-2.718 18.834 17.808 18.846 53.538 18.846 53.538s-35.676 1.99-54.51-15.818zM603.981 280.541c-18.834 17.808-54.51 15.818-54.51 15.818s0.012-35.73 18.846-53.538c9.43-8.918 23.87-8.956 34.906 2.718 11.26 11.91 10.188 26.086 0.758 35.002z" />
<glyph unicode="&#xe911;" glyph-name="495018" d="M1022.336 270.038c1.578 4.224 2.134 8.874 0.682 13.568l-84.352 274.134v252.926c0 58.794-47.83 106.666-106.666 106.666h-640c-58.838 0-106.666-47.872-106.666-106.666v-252.928l-84.352-274.132c-1.45-4.65-0.896-9.302 0.682-13.568-1.024-4.524-1.664-9.174-1.664-14.038v-256c0-11.776 9.558-21.334 21.334-21.334h85.334c11.774 0 21.332 9.558 21.332 21.334v64h768v-64c0-11.776 9.558-21.334 21.334-21.334h85.334c11.776 0 21.334 9.558 21.334 21.334v256c-0.002 4.864-0.642 9.514-1.666 14.038zM128 810.666c0 35.286 28.714 64 64 64h640c35.286 0 64-28.714 64-64v-234.666h-57.984l-19.882 79.53c-7.168 28.544-32.726 48.47-62.124 48.47h-137.344c-35.286 0-64-28.714-64-64v-64h-85.334v63.958c0 35.286-28.714 64-64 64h-137.344c-29.398 0-54.954-19.968-62.122-48.47l-19.882-79.488h-57.984v234.666zM794.198 541.526c-4.096-5.206-10.24-8.192-16.854-8.192h-158.678c-11.734 0-21.334 9.558-21.334 21.334v85.332c0 11.776 9.6 21.334 21.334 21.334h137.386c9.814 0 18.304-6.614 20.694-16.128l21.334-85.334c1.622-6.442 0.214-13.098-3.882-18.346zM426.71 640v-85.12c0-0.086-0.042-0.128-0.042-0.214 0-0.042 0-0.086 0-0.086-0.042-11.734-9.6-21.248-21.29-21.248h-158.678c-6.656 0-12.758 2.986-16.854 8.192-4.096 5.248-5.504 11.946-3.882 18.346l21.334 85.334c2.39 9.472 10.88 16.128 20.736 16.128h137.344c11.732 0.002 21.332-9.556 21.332-21.332zM122.41 533.334h64.214c2.262-6.4 5.206-12.544 9.514-18.090 12.288-15.616 30.678-24.576 50.518-24.576h158.678c27.776 0 51.242 17.92 60.074 42.666h93.184c8.832-24.79 32.298-42.666 60.074-42.666h158.678c19.84 0 38.186 8.96 50.474 24.576 4.31 5.504 7.254 11.69 9.514 18.090h64.256l65.878-214.102c-2.474 0.298-4.906 0.768-7.466 0.768h-896c-2.56 0-4.992-0.47-7.424-0.768l65.834 214.102zM85.334 21.334h-42.668v42.666h42.666v-42.666zM981.334 21.334h-42.666v42.666h42.666v-42.666zM981.334 106.666h-938.668v149.334c0 11.776 9.6 21.334 21.334 21.334h896c11.734 0 21.334-9.558 21.334-21.334v-149.334z" />
<glyph unicode="&#xe912;" glyph-name="545682" d="M1012.268 476.314c-0.012 0.012-0.022 0.026-0.036 0.038l-209.008 208c-15.658 15.582-40.984 15.524-56.57-0.136-15.584-15.658-15.524-40.984 0.134-56.568l140.328-139.648h-847.116c-22.092 0-40-17.908-40-40s17.908-40 40-40h847.114l-140.324-139.648c-15.658-15.584-15.718-40.91-0.134-56.568 15.586-15.662 40.914-15.716 56.57-0.136l209.008 208c0.012 0.012 0.022 0.026 0.036 0.038 15.666 15.636 15.616 41.044-0.002 56.628z" />
<glyph unicode="&#xe913;" glyph-name="686308" d="M939.020 326c14.28 15.94 22.98 36.98 22.98 60 0 49.62-40.38 90-90 90h-174.68c17.3 52.5 24.68 122.16 24.68 152.020v29.98c0 66.16-53.84 120-120 120h-30c-13.76 0-25.76-9.36-29.1-22.72l-16.34-65.38c-22.9-91.56-95.6-192.58-170.84-210.94-13.18 33.36-45.72 57.040-83.72 57.040h-180c-16.56 0-30-13.44-30-30v-540c0-16.56 13.44-30 30-30h180c35.78 0 66.74 20.98 81.24 51.3l103.080-34.36c33.7-11.24 68.82-16.94 104.36-16.94h251.32c49.62 0 90 40.38 90 90 0 11.7-2.24 22.9-6.32 33.16 38.16 10.42 66.32 45.4 66.32 86.84 0 23.020-8.7 44.060-22.98 60 14.28 15.94 22.98 36.98 22.98 60s-8.7 44.060-22.98 60zM302 26c0-16.54-13.46-30-30-30h-150v480h150c16.54 0 30-13.46 30-30v-420zM812 296h60c16.54 0 30-13.46 30-30s-13.46-30-30-30h-60c-16.56 0-30-13.44-30-30s13.44-30 30-30h60c16.54 0 30-13.46 30-30s-13.46-30-30-30h-60c-16.56 0-30-13.44-30-30s13.44-30 30-30c16.54 0 30-13.46 30-30s-13.46-30-30-30h-251.32c-29.080 0-57.82 4.66-85.4 13.86l-113.28 37.76v371.22c47.060 8.94 93.12 38.74 134.7 87.52 40.6 47.64 73.52 110.8 88.060 168.98l10.66 42.66h6.58c33.080 0 60-26.92 60-60v-29.98c0-40.28-12.6-117.54-28.72-152.020h-61.28c-16.56 0-30-13.44-30-30s13.44-30 30-30h300c16.54 0 30-13.46 30-30s-13.46-30-30-30h-60c-16.56 0-30-13.44-30-30s13.44-30 30-30zM242 86c0-16.569-13.431-30-30-30s-30 13.431-30 30c0 16.569 13.431 30 30 30s30-13.431 30-30zM632 960c-16.568 0-30-13.432-30-30v-62c0-16.568 13.432-30 30-30s30 13.432 30 30v62c0 16.568-13.432 30-30 30zM504.72 827.704l-42.426 42.426c-11.714 11.716-30.71 11.716-42.426 0s-11.716-30.71 0-42.426l42.426-42.426c11.714-11.714 30.712-11.716 42.426 0 11.716 11.716 11.716 30.71 0 42.426zM844.132 870.13c-11.714 11.716-30.71 11.716-42.426 0l-42.426-42.424c-11.716-11.716-11.716-30.71 0-42.426 11.714-11.716 30.71-11.718 42.426-0.002l42.426 42.426c11.716 11.716 11.716 30.71 0 42.426z" />
<glyph unicode="&#xe914;" glyph-name="709790" d="M773.378 351.194c-71.174 0-129.076-57.902-129.076-129.076s57.902-129.076 129.076-129.076c71.186 0 129.076 57.902 129.076 129.076s-57.902 129.076-129.076 129.076zM773.378 157.58c-35.592 0-64.538 28.946-64.538 64.538s28.946 64.538 64.538 64.538c35.592 0 64.538-28.946 64.538-64.538 0-35.594-28.946-64.538-64.538-64.538zM332.37 351.194c-71.174 0-129.076-57.902-129.076-129.076s57.902-129.076 129.076-129.076 129.076 57.902 129.076 129.076-57.902 129.076-129.076 129.076zM332.37 157.58c-35.592 0-64.538 28.946-64.538 64.538s28.946 64.538 64.538 64.538c35.582 0 64.538-28.946 64.538-64.538 0-35.594-28.946-64.538-64.538-64.538zM860.3 720.65c-5.486 10.896-16.64 17.77-28.838 17.77h-169.95v-64.538h150.050l87.868-174.768 57.676 29-96.806 192.536zM432.404 253.31h244.168v-64.538h-244.168v64.538zM235.562 253.31h-111.864c-17.824 0-32.268-14.446-32.268-32.268 0-17.824 14.446-32.268 32.268-32.268h111.866c17.824 0 32.268 14.446 32.268 32.268 0 17.824-14.446 32.268-32.27 32.268zM1017.224 450.582l-63.472 81.748c-6.098 7.874-15.51 12.478-25.482 12.478h-234.488v225.882c0 17.824-14.446 32.268-32.268 32.268h-537.816c-17.824 0-32.268-14.446-32.268-32.268s14.446-32.268 32.268-32.268h505.546v-225.882c0-17.824 14.446-32.268 32.268-32.268h250.956l46.994-60.536v-166.422h-89.278c-17.824 0-32.268-14.446-32.268-32.268 0-17.824 14.446-32.268 32.268-32.268h121.546c17.824 0 32.268 14.446 32.27 32.268v209.744c0 7.164-2.388 14.134-6.776 19.792zM233.412 416.806h-148.438c-17.824 0-32.268-14.446-32.268-32.268 0-17.824 14.446-32.268 32.268-32.268h148.436c17.824 0 32.268 14.446 32.268 32.268 0.002 17.822-14.444 32.268-32.266 32.268zM307.63 543.732h-275.362c-17.822 0-32.268-14.446-32.268-32.27s14.446-32.268 32.268-32.268h275.362c17.824 0 32.268 14.446 32.268 32.268s-14.444 32.27-32.268 32.27zM360.336 670.656h-275.362c-17.824 0-32.268-14.446-32.268-32.268 0-17.824 14.446-32.268 32.268-32.268h275.362c17.824 0 32.268 14.446 32.268 32.268 0.002 17.822-14.444 32.268-32.268 32.268z" />
<glyph unicode="&#xe915;" glyph-name="711897" d="M810.779 234.772c-70.404 0-127.681-57.278-127.681-127.681s57.278-127.681 127.681-127.681 127.681 57.278 127.681 127.681-57.278 127.681-127.681 127.681zM810.779 56.019c-28.166 0-51.072 22.906-51.072 51.072s22.906 51.072 51.072 51.072c28.166 0 51.072-22.906 51.072-51.072s-22.906-51.072-51.072-51.072zM1015.86 728.249c-7.252 9.282-18.374 14.696-30.158 14.696h-749.26l-34.474 144.241c-4.124 17.236-19.536 29.404-37.258 29.404h-126.405c-21.156 0.002-38.304-17.146-38.304-38.302s17.148-38.304 38.304-38.304h96.171l124.489-520.889c4.124-17.25 19.536-29.404 37.258-29.404h596.273c17.608 0 32.954 12.002 37.18 29.086l93.209 376.66c2.82 11.438 0.228 23.53-7.024 32.812zM862.527 366.297h-536.071l-71.706 300.040h682.010l-74.232-300.040zM347.294 234.772c-70.404 0-127.681-57.278-127.681-127.681s57.278-127.681 127.681-127.681 127.681 57.278 127.681 127.681-57.278 127.681-127.681 127.681zM347.294 56.019c-28.166 0-51.072 22.906-51.072 51.072s22.906 51.072 51.072 51.072 51.072-22.906 51.072-51.072-22.906-51.072-51.072-51.072z" />
<glyph unicode="&#xe916;" glyph-name="733614" d="M704 960h-384c-176.704 0-320-143.296-320-320v-384c0-176.704 143.296-320 320-320h384c176.704 0 320 143.296 320 320v384c0 176.704-143.296 320-320 320zM928 256c0-123.52-100.48-224-224-224h-384c-123.52 0-224 100.48-224 224v384c0 123.52 100.48 224 224 224h384c123.52 0 224-100.48 224-224v-384zM512 704c-141.376 0-256-114.624-256-256s114.624-256 256-256 256 114.624 256 256-114.624 256-256 256zM512 288c-88.192 0-160 71.808-160 160 0 88.256 71.808 160 160 160s160-71.744 160-160c0-88.192-71.808-160-160-160zM821.312 723.2c0-18.84-15.272-34.112-34.112-34.112s-34.112 15.272-34.112 34.112c0 18.84 15.272 34.112 34.112 34.112s34.112-15.272 34.112-34.112z" />
<glyph unicode="&#xe917;" glyph-name="733635" d="M1024 765.504c-38.080-16.704-78.656-27.776-120.96-33.152 43.52 25.984 76.736 66.816 92.352 116.032-40.576-24.192-85.376-41.28-133.12-50.816-38.528 41.024-93.44 66.432-153.344 66.432-116.224 0-209.792-94.336-209.792-209.984 0-16.64 1.408-32.64 4.864-47.872-174.528 8.512-328.96 92.16-432.704 219.584-18.112-31.424-28.736-67.392-28.736-106.112 0-72.704 37.44-137.152 93.248-174.464-33.728 0.64-66.816 10.432-94.848 25.856 0-0.64 0-1.472 0-2.304 0-102.016 72.768-186.752 168.192-206.272-17.088-4.672-35.712-6.912-55.040-6.912-13.44 0-27.008 0.768-39.744 3.584 27.2-83.136 104.384-144.256 196.16-146.24-71.424-55.872-162.112-89.536-260.288-89.536-17.216 0-33.728 0.768-50.24 2.88 92.992-59.968 203.2-94.208 322.048-94.208 386.304 0 597.504 320 597.504 597.376 0 9.28-0.32 18.24-0.768 27.136 41.664 29.568 76.672 66.496 105.216 108.992z" />
<glyph unicode="&#xe918;" glyph-name="747310" d="M904 880h-48v80h-80v-80h-528v80h-80v-80h-48c-66.168 0-120-53.832-120-120v-704c0-66.168 53.832-120 120-120h784c66.168 0 120 53.832 120 120v704c0 66.168-53.832 120-120 120zM944 56c0-22.056-17.944-40-40-40h-784c-22.056 0-40 17.944-40 40v528h864v-528zM944 664h-864v96c0 22.056 17.944 40 40 40h48v-80h80v80h528v-80h80v80h48c22.056 0 40-17.944 40-40v-96zM152 500h80v-80h-80v80zM312 500h80v-80h-80v80zM472 500h80v-80h-80v80zM632 500h80v-80h-80v80zM792 500h80v-80h-80v80zM152 340h80v-80h-80v80zM312 340h80v-80h-80v80zM472 340h80v-80h-80v80zM632 340h80v-80h-80v80zM152 180h80v-80h-80v80zM312 180h80v-80h-80v80zM472 180h80v-80h-80v80zM632 180h80v-80h-80v80zM792 340h80v-80h-80v80z" />
<glyph unicode="&#xe919;" glyph-name="806765" d="M511.375 417.999c-16.582 0-30 13.416-30 30 0 16.582 13.416 30 30 30 8.014 0 15.546-3.122 21.214-8.788 11.714-11.714 30.71-11.714 42.426 0.002s11.714 30.71-0.002 42.426c-9.658 9.658-21.128 16.842-33.638 21.252v35.108c0 16.568-13.432 30-30 30s-30-13.432-30-30v-35.106c-34.766-12.258-60-45.496-60-84.894 0-49.744 40.254-90 90-90 16.582 0 30-13.416 30-30 0-16.582-13.416-30-30-30-8.014 0-15.546 3.122-21.214 8.788-11.714 11.714-30.71 11.714-42.426-0.002s-11.714-30.71 0.002-42.426c9.658-9.658 21.128-16.842 33.638-21.252v-35.108c0-16.568 13.432-30 30-30s30 13.432 30 30v35.106c34.766 12.258 60 45.496 60 84.894 0 49.744-40.254 90-90 90zM511.375 717.998c-181.728 0-329.999-147.8-329.999-329.999 0-182.040 147.722-331.999 329.999-331.999 182.022 0 329.999 149.722 329.999 331.999 0 181.442-147.512 329.999-329.999 329.999zM722.787 219.013l-20.574 20.574c-11.714 11.716-30.71 11.716-42.426 0s-11.716-30.71 0-42.426l20.882-20.882c-46.34-37.68-105.242-60.28-169.294-60.28s-122.954 22.6-169.294 60.28l20.882 20.882c11.716 11.716 11.716 30.71 0 42.426-11.714 11.716-30.71 11.716-42.426 0l-20.574-20.574c-30.83 39.062-51.23 86.826-56.938 138.986h28.35c16.568 0 30 13.432 30 30s-13.432 30-30 30h-28.324c5.776 52 26.372 99.584 57.466 138.432l20.020-20.020c11.714-11.716 30.712-11.716 42.426 0 11.716 11.716 11.716 30.71 0 42.426l-20.020 20.020c46.208 36.986 104.778 59.142 168.432 59.142s122.224-22.156 168.432-59.142l-20.020-20.020c-11.716-11.716-11.716-30.71 0-42.426 11.714-11.716 30.712-11.716 42.426 0l20.020 20.020c31.094-38.848 51.692-86.432 57.466-138.432h-28.324c-16.568 0-30-13.432-30-30s13.432-30 30-30h28.35c-5.708-52.162-26.106-99.924-56.938-138.986zM893.212 727.41l21.214-21.214c11.714-11.716 30.712-11.716 42.426 0 11.716 11.716 11.716 30.71 0 42.426-23.678 23.678-81.574 81.572-84.854 84.852-11.714 11.716-30.71 11.716-42.426 0s-11.716-30.71 0-42.426l21.214-21.212-43.292-43.292c-46.656 40.86-101.784 72.27-162.388 91.17 10.556 15.374 16.27 33.476 16.27 52.286 0 49.626-40.374 90-90 90h-120c-49.626 0-90-40.374-90-90 0-18.81 5.714-36.912 16.27-52.286-60.316-18.81-115.212-50.006-161.728-90.584l-42.706 42.706 21.214 21.212c11.716 11.714 11.716 30.71 0 42.426s-30.71 11.716-42.426 0c-45.234-45.232-32.932-32.932-84.854-84.852-11.716-11.714-11.716-30.71 0-42.426s30.71-11.716 42.426 0l21.214 21.214 42.632-42.632c-69.704-79.278-112.044-183.17-112.044-296.779 0-248.25 201.454-451.999 449.999-451.999 248.228 0 449.999 203.454 449.999 451.999 0 113.292-42.1 216.926-111.456 296.119l43.294 43.292zM451.375 899.998h120c16.542 0 30-13.458 30-30 0-17.046-14.018-32-30-32h-120c-15.982 0-30 14.954-30 32 0 16.542 13.458 30 30 30zM901.374 387.999c0-216.15-174.954-391.999-389.999-391.999s-389.999 175.85-389.999 391.999c0 216.392 176.5 389.999 389.999 389.999 215.046 0 389.999-174.954 389.999-389.999z" />
<glyph unicode="&#xe91a;" glyph-name="860796" d="M572.035 447.733l438.947 438.947c16.941 16.362 17.411 43.358 1.049 60.3s-43.358 17.411-60.3 1.049c-0.355-0.342-0.705-0.692-1.049-1.049l-438.949-438.947-438.947 438.949c-16.941 16.362-43.938 15.892-60.3-1.049-15.962-16.527-15.962-42.726 0-59.253l438.947-438.947-438.947-438.947c-16.649-16.652-16.649-43.648 0-60.3 16.652-16.647 43.648-16.647 60.3 0l438.947 438.947 438.947-438.947c16.941-16.362 43.938-15.892 60.3 1.049 15.959 16.527 15.959 42.726 0 59.25l-438.944 438.947z" />
<glyph unicode="&#xe91b;" glyph-name="863958" d="M1021.023 797.95c-7.264 20.39-26.586 33.993-48.232 33.955-21.614-0.090-40.844-13.746-48.048-34.125h-54.327v51.188c0 9.423-7.64 17.063-17.063 17.063h-682.503c-9.423 0-17.063-7.64-17.063-17.063v-51.188h-54.325c-9.423 26.654-38.67 40.622-65.322 31.197s-40.622-38.67-31.199-65.324c9.423-26.654 38.67-40.622 65.322-31.197 14.578 5.153 26.044 16.621 31.197 31.197h54.327v-716.628c0.004-4.662 1.915-9.12 5.289-12.336 3.402-3.165 7.915-4.859 12.558-4.709l17.063 0.785c4.249 0.196 8.271 1.973 11.278 4.982l23.41 23.41c8.646 8.678 22.691 8.706 31.37 0.060 0.019-0.019 0.041-0.041 0.060-0.060l12.695-12.695c22.299-21.281 57.384-21.281 79.682 0l12.695 12.695c8.646 8.678 22.691 8.706 31.37 0.060 0.019-0.019 0.041-0.041 0.060-0.060l12.695-12.695c22.299-21.281 57.384-21.281 79.682 0l12.695 12.695c8.646 8.678 22.691 8.706 31.37 0.060 0.019-0.019 0.041-0.041 0.060-0.060l12.695-12.695c22.299-21.281 57.384-21.281 79.682 0l12.695 12.695c3.227 3.078 7.328 5.080 11.739 5.733 2.542-1.071 5.409-1.071 7.951 0 4.411-0.653 8.512-2.655 11.739-5.733l12.695-12.695c22.299-21.281 57.384-21.281 79.682 0l12.695 12.695c8.646 8.678 22.691 8.706 31.37 0.060 0.019-0.019 0.041-0.041 0.060-0.060l23.41-23.41c3.007-3.009 7.030-4.786 11.278-4.982l17.063-0.785h0.785c9.423 0 17.063 7.64 17.063 17.063v716.611h54.327c9.47-26.586 38.7-40.462 65.288-30.992 26.588 9.472 40.464 38.702 30.992 65.29zM51.414 763.652c-9.423 0-17.063 7.64-17.063 17.063s7.64 17.063 17.063 17.063 17.063-7.64 17.063-17.063-7.64-17.063-17.063-17.063zM836.292 71.935l-11.347 11.347c-21.974 22.004-57.627 22.028-79.629 0.053-0.017-0.017-0.036-0.034-0.053-0.053l-12.695-12.695c-8.689-8.655-22.74-8.655-31.429 0l-12.695 12.695c-6.384 6.317-14.198 11.001-22.779 13.65v188.968c0 9.423-7.64 17.063-17.063 17.063s-17.063-7.64-17.063-17.063v-189.019c-8.58-2.649-16.395-7.333-22.779-13.65l-12.695-12.695c-8.689-8.655-22.74-8.655-31.429 0l-12.695 12.695c-21.974 22.004-57.627 22.028-79.629 0.053-0.017-0.017-0.036-0.034-0.053-0.053l-12.695-12.695c-8.689-8.655-22.74-8.655-31.429 0l-12.695 12.695c-6.448 6.362-14.356 11.050-23.034 13.65 0 0.444 0.256 0.819 0.256 1.263v290.132c0 9.423-7.64 17.063-17.063 17.063s-17.063-7.64-17.063-17.063v-290.064c0-0.444 0.222-0.819 0.256-1.263-8.678-2.6-16.587-7.288-23.034-13.65l-12.695-12.695c-8.689-8.655-22.74-8.655-31.429 0l-12.695 12.695c-21.974 22.004-57.627 22.028-79.629 0.053-0.017-0.017-0.036-0.034-0.053-0.053l-11.347-11.364v759.967h648.378v-759.967zM972.793 763.652c-9.423 0-17.063 7.64-17.063 17.063s7.64 17.063 17.063 17.063 17.063-7.64 17.063-17.063-7.64-17.063-17.063-17.063zM460.916 797.778h-221.814c-9.423 0-17.063-7.64-17.063-17.063s7.64-17.063 17.063-17.063h221.814c9.423 0 17.063 7.64 17.063 17.063s-7.64 17.063-17.063 17.063zM785.105 797.778h-221.814c-9.423 0-17.063-7.64-17.063-17.063s7.64-17.063 17.063-17.063h221.814c9.423 0 17.063 7.64 17.063 17.063s-7.64 17.063-17.063 17.063zM785.105 712.465c-9.423 0-17.063-7.64-17.063-17.063v-204.751c0-9.423 7.64-17.063 17.063-17.063s17.063 7.64 17.063 17.063v204.751c0 9.425-7.64 17.063-17.063 17.063zM512.103 644.214c-9.423 0-17.063-7.64-17.063-17.063v-204.751c0-9.423 7.64-17.063 17.063-17.063s17.063 7.64 17.063 17.063v204.751c0 9.425-7.64 17.063-17.063 17.063zM648.604 422.401c-9.423 0-17.063-7.64-17.063-17.063v-51.188c0-9.423 7.64-17.063 17.063-17.063s17.063 7.64 17.063 17.063v51.188c0 9.425-7.64 17.063-17.063 17.063zM375.603 507.714c-9.423 0-17.063-7.64-17.063-17.063v-34.125c0-9.423 7.64-17.063 17.063-17.063s17.063 7.64 17.063 17.063v34.125c0 9.425-7.64 17.063-17.063 17.063z" />
<glyph unicode="&#xe91c;" glyph-name="868044" d="M591.073 839.53c-16.888 0-32.848-7.85-43.798-21.546-7.888-9.88-21.068-15.778-35.26-15.778s-27.374 5.898-35.282 15.804c-6.446 8.038-20.704 21.52-43.778 21.52-34.304 0-56.472-17.732-56.472-45.176 0-8.316 6.742-15.058 15.058-15.058 8.322-0.002 15.064 6.74 15.064 15.058 0 4.916 1.374 8.798 8.082 11.762 6.734 2.974 15.020 3.296 18.272 3.296 9.972 0 16.534-5.572 20.26-10.218 13.752-17.226 35.184-27.104 58.798-27.104s45.046 9.88 58.792 27.098c5.196 6.498 12.582 10.226 20.266 10.226 3.246 0 11.524-0.322 18.262-3.298 6.716-2.966 8.092-6.848 8.092-11.762 0-8.316 6.742-15.058 15.058-15.058s15.058 6.742 15.058 15.058c0 27.444-22.166 45.176-56.472 45.176zM810.49 206.075c-9.858 66.42-23.894 129.144-41.682 186.408-13.914 44.814-30.078 86.176-48.048 122.94-15.18 31.062-28.43 52.244-36.884 64.552-4.058 5.932-6.976 9.764-8.506 11.706l-24.92 49.842c0.53 0.484 1.040 0.994 1.502 1.558 0.020 0 0.020 0 0.020 0.020 9.396 11.504 22.99 30.46 34.374 55.356 14.176 31.002 21.384 63.266 21.444 95.894 0.010 2.832-0.12 5.626-0.32 8.402 0.206 0.992 0.316 2.018 0.316 3.070v139.118c0 8.316-6.742 15.058-15.058 15.058h-60.236c-8.316 0-15.058-6.742-15.058-15.058v-47.558c-8.508 1.566-17.322 2.38-26.38 2.38-29.294 0-57.364-11.144-79.028-31.402-21.664 20.258-49.734 31.402-79.028 31.402h-0.040c-9.040 0-17.846-0.814-26.35-2.382v47.56c0 8.316-6.742 15.058-15.058 15.058h-60.236c-8.316 0-15.058-6.742-15.058-15.058v-150.588c0-0.062 0.008-0.124 0.010-0.186 0.018-22.066 3.408-44.23 10.056-65.874 5.32-17.288 12.73-34.314 22.026-50.578 9.43-16.518 18.808-28.818 25.136-36.352l-24.83-49.662c-4.118-5.232-18.618-24.612-37.19-60.076-12.508-23.894-24.374-50.316-35.256-78.546-13.574-35.198-25.66-73.326-35.92-113.342-1.004-3.896-0.442-7.952 1.606-11.404 2.048-3.474 5.32-5.922 9.216-6.926 1.244-0.322 2.51-0.482 3.774-0.482 6.866 0 12.85 4.658 14.556 11.324 10 38.912 21.724 75.916 34.876 109.99 10.46 27.166 21.844 52.544 33.832 75.414 10.542 20.158 19.616 34.576 25.36 43.128 1.866 2.772 3.654 5.362 5.36 7.69h286.277c1.204-1.646 2.47-3.434 3.734-5.28 0.060-0.080 0.1-0.16 0.16-0.242 31.462-45.998 134.444-224.296 138.942-587.455l-8.172 4.096c-4.156 2.068-9.316 2.068-13.472 0l-23.372-11.704-23.392 11.704c-4.156 2.068-9.316 2.068-13.472 0l-23.372-11.704-23.392 11.704c-4.156 2.068-9.316 2.068-13.472 0l-23.372-11.704-23.392 11.704c-4.156 2.068-9.316 2.068-13.472 0l-23.372-11.704-23.392 11.704c-4.156 2.068-9.316 2.068-13.472 0l-23.372-11.704-23.392 11.704c-4.156 2.068-9.316 2.068-13.472 0l-23.372-11.704-23.392 11.704c-4.156 2.068-9.316 2.068-13.472 0l-23.392-11.704-23.412 11.704c-4.156 2.068-9.296 2.068-13.452 0l-23.392-11.686-23.35 11.686c-4.136 2.068-9.316 2.068-13.472 0l-23.392-11.704-23.372 11.704c-4.136 2.068-9.316 2.068-13.472 0l-8.192-4.096c1.326 107.26 11.446 207.792 30.078 298.809 0.802 3.936 0.020 7.952-2.188 11.304s-5.602 5.662-9.538 6.466c-1.004 0.2-2.028 0.3-3.052 0.3-7.108 0-13.292-5.060-14.718-12.028 0 0-0.020 0-0.020-0.020-20.46-99.93-30.82-210.702-30.84-329.267 0-5.26 2.67-10.040 7.148-12.81 4.378-2.71 10.040-2.952 14.638-0.662l23.412 11.686 23.37-11.686c4.136-2.068 9.316-2.068 13.452 0l23.412 11.686 23.37-11.686c4.136-2.068 9.316-2.068 13.472 0l23.372 11.706 23.432-11.706c4.136-2.068 9.296-2.068 13.452 0l23.392 11.706 23.372-11.706c4.156-2.068 9.336-2.068 13.472 0l23.392 11.706 23.372-11.706c4.156-2.068 9.336-2.068 13.472 0l23.392 11.706 23.372-11.706c4.156-2.068 9.316-2.068 13.472 0l23.392 11.706 23.372-11.706c4.156-2.068 9.316-2.068 13.472 0l23.392 11.706 23.372-11.706c4.156-2.068 9.316-2.068 13.472 0l23.392 11.706 23.372-11.706c4.156-2.068 9.316-2.068 13.472 0l23.392 11.706 23.372-11.706c2.088-1.044 4.416-1.586 6.746-1.586 2.792 0 5.522 0.764 7.91 2.248 4.478 2.75 7.148 7.55 7.148 12.81 0 89.728-5.962 175.544-17.768 255.016zM647.547 929.882h30.118v-62.296c-1.606 1.548-3.252 3.062-4.976 4.508-7.484 6.326-15.918 11.614-25.142 15.852v41.936zM346.371 929.882h30.118v-41.942c-9.224-4.236-17.652-9.522-25.132-15.844-1.728-1.45-3.376-2.968-4.986-4.518v62.304zM385.765 598.583l15.058 30.118h183.222c8.292 0 15.058 6.766 15.058 15.058 0 8.312-6.766 15.058-15.058 15.058h-185.886c-5.14 5.964-15.198 18.552-24.998 36.182-7.85 14.12-14.074 28.836-18.532 43.734-5.482 18.372-8.272 37.084-8.252 55.616 0.060 11.606 2.268 22.206 6.566 31.502 4.056 8.734 10.060 16.564 17.87 23.25 7.096 6.020 15.528 10.794 24.898 14.228 0.624 0.18 1.234 0.392 1.822 0.648 10.79 3.706 22.762 5.664 35.382 5.664h0.040c13.312 0 26.062-3.012 37.888-8.914 11.344-5.682 21.242-13.734 29.414-23.914 2.87-3.574 7.168-5.642 11.766-5.642s8.874 2.068 11.746 5.642c8.050 10.040 18.232 18.312 29.436 23.914 11.826 5.902 24.576 8.914 37.868 8.914h0.040c12.618 0 24.586-1.954 35.37-5.654 0.604-0.264 1.232-0.482 1.874-0.666 9.362-3.434 17.788-8.206 24.878-14.22 7.79-6.686 13.814-14.516 17.85-23.25 4.316-9.296 6.526-19.896 6.586-31.502 0.060-28.008-6.244-56.058-18.754-83.386-10.802-23.652-23.592-40.72-30.238-48.792-1.196-1.448-2.082-3.086-2.658-4.826-0.088-0.042-0.178-0.072-0.264-0.116-7.44-3.718-10.454-12.764-6.734-20.202l19.222-38.444h-252.48zM427.597 507.017c-7.644 3.278-16.498-0.264-19.774-7.908-90.53-211.236-91.572-418.849-91.572-427.583 0-8.314 6.74-15.054 15.054-15.056 0.004-0.002 0.006-0.002 0.006-0.002 8.312 0 15.054 6.74 15.058 15.052 0.002 2.080 1.132 210.382 89.136 415.723 3.276 7.646-0.264 16.498-7.908 19.774zM616.211 499.107c-3.276 7.646-12.132 11.184-19.774 7.908-7.644-3.276-11.186-12.128-7.908-19.774 88.004-205.34 89.136-413.643 89.136-415.723 0.004-8.312 6.744-15.052 15.060-15.052s15.058 6.742 15.058 15.058c0 8.734-1.042 216.346-91.572 427.583zM512.019 508.235c-8.316 0-15.058-6.742-15.058-15.058v-421.651c0-8.316 6.742-15.058 15.058-15.058 8.316-0.002 15.058 6.74 15.058 15.058v421.651c0 8.316-6.742 15.058-15.058 15.058z" />
<glyph unicode="&#xe91d;" glyph-name="876214" d="M987.428 703.999h-182.856v219.428c0 20.199-16.374 36.572-36.572 36.572h-511.999c-20.199 0-36.572-16.374-36.572-36.572v-219.428h-182.856c-20.199 0-36.572-16.374-36.572-36.57v-475.429c0-20.199 16.374-36.572 36.572-36.572h182.856v-182.856c0-20.199 16.374-36.572 36.572-36.572h511.999c20.199 0 36.572 16.374 36.572 36.572v182.856h182.856c20.199 0 36.572 16.374 36.572 36.572v475.429c0 20.196-16.374 36.57-36.572 36.57zM292.571 886.858h438.857v-182.856h-438.857v182.856zM731.427 9.144h-438.857v329.143h438.857v-329.143zM950.856 228.573h-146.286v109.714h36.572c20.199 0 36.572 16.374 36.572 36.572s-16.374 36.57-36.572 36.57h-658.285c-20.199 0-36.572-16.374-36.572-36.572s16.374-36.572 36.572-36.572h36.572v-109.714h-146.286v402.287h877.714v-402.285zM877.714 557.715h-36.572c-20.199 0-36.572-16.374-36.572-36.572s16.374-36.572 36.572-36.572h36.572c20.199 0 36.572 16.374 36.572 36.572s-16.374 36.572-36.572 36.572zM621.713 265.143h-219.428c-20.199 0-36.572-16.374-36.572-36.572s16.374-36.572 36.572-36.572h219.428c20.199 0 36.572 16.374 36.572 36.572s-16.374 36.572-36.572 36.572zM621.713 155.428h-219.428c-20.199 0-36.572-16.374-36.572-36.572s16.374-36.572 36.572-36.572h219.428c20.199 0 36.572 16.374 36.572 36.572s-16.374 36.572-36.572 36.572z" />
<glyph unicode="&#xe91e;" glyph-name="884417" d="M979.951 818.347l-218.249 70.707c-5.22 1.805-10.707 2.711-16.23 2.679h-3.072l-46.080 61.44c-2.771 3.695-6.921 6.108-11.503 6.69-0.719 0-1.438-0.051-2.15-0.154v0.29l-341.333-0.29c-0.713 0.102-1.431 0.154-2.15 0.154-4.582-0.582-8.732-2.995-11.503-6.69l-46.080-61.44h-3.072c-5.385 0.043-10.737-0.817-15.838-2.543l-219.648-71.185c-26.052-10.185-43.155-35.345-43.042-63.317v-665.088c0-9.425 7.642-17.067 17.067-17.067h153.6v-119.467c0-9.425 7.642-17.067 17.067-17.067h648.533c9.425 0 17.067 7.642 17.067 17.067v119.467h153.6c9.425 0 17.067 7.642 17.067 17.067v665.088c0.015 28.324-17.536 53.687-44.049 63.659zM710.775 876.988l-129.826-115.405-43.349 43.401 142.029 113.63 31.147-41.626zM344.422 918.613l141.978-113.63-43.349-43.401-129.826 115.405 31.198 41.626zM170.667 106.667h-136.533v34.133h136.533v-34.133zM494.933-29.867h-290.133v631.467h-34.133v-426.667h-136.533v579.755c-0.143 13.602 7.949 25.941 20.48 31.232l218.982 70.946c1.594 0.51 3.26 0.757 4.932 0.734h5.12l148.753-132.233c6.756-5.995 17.013-5.687 23.398 0.7l39.134 39.134v-795.068zM389.99 925.867h244.053l-122.044-97.604-122.010 97.604zM989.867 106.667h-136.533v34.133h136.533v-34.133zM989.867 174.933h-136.533v426.667h-34.133v-631.467h-290.133v795.068l39.134-39.134c6.385-6.387 16.642-6.694 23.398-0.7l148.753 132.233h5.12c1.807 0.017 3.601-0.277 5.308-0.87l217.634-70.468c12.986-5.084 21.51-17.628 21.453-31.573v-579.755zM563.2 652.8h34.133v-34.133h-34.133v34.133zM563.2 550.4h34.133v-34.133h-34.133v34.133zM563.2 448h34.133v-34.133h-34.133v34.133zM563.2 345.6h34.133v-34.133h-34.133v34.133zM563.2 243.2h34.133v-34.133h-34.133v34.133zM563.2 140.8h34.133v-34.133h-34.133v34.133zM563.2 38.4h34.133v-34.133h-34.133v34.133z" />
<glyph unicode="&#xe91f;" glyph-name="1004017" d="M1023.701 791.317c-0.107 2.112-0.512 4.139-0.939 6.229-0.427 2.112-0.811 4.181-1.536 6.187-0.235 0.64-0.213 1.301-0.469 1.92-0.533 1.259-1.429 2.261-2.069 3.456-1.024 1.941-2.048 3.819-3.349 5.568-1.237 1.664-2.645 3.093-4.117 4.544-1.451 1.451-2.88 2.859-4.544 4.117-1.749 1.301-3.627 2.325-5.568 3.349-1.195 0.64-2.176 1.557-3.456 2.069-0.619 0.256-1.301 0.256-1.92 0.491-1.984 0.725-4.011 1.109-6.101 1.536-2.133 0.427-4.203 0.853-6.357 0.96-0.661 0-1.28 0.256-1.941 0.256h-938.667c-0.683 0-1.323-0.277-2.005-0.299-2.112-0.107-4.139-0.512-6.229-0.939-2.112-0.427-4.181-0.811-6.187-1.536-0.64-0.235-1.301-0.213-1.92-0.469-1.259-0.533-2.261-1.429-3.456-2.069-1.941-1.024-3.819-2.048-5.568-3.349-1.664-1.237-3.093-2.645-4.544-4.117-1.451-1.451-2.859-2.88-4.117-4.544-1.301-1.749-2.325-3.627-3.349-5.568-0.64-1.195-1.557-2.176-2.069-3.456-0.256-0.619-0.256-1.28-0.469-1.92-0.725-2.005-1.109-4.075-1.536-6.187-0.405-2.091-0.832-4.117-0.939-6.229-0.021-0.683-0.277-1.301-0.277-1.984v-682.667c0-2.795 0.299-5.589 0.832-8.363 0.256-1.259 0.725-2.432 1.088-3.648 0.427-1.451 0.768-2.901 1.344-4.309 0.597-1.429 1.408-2.731 2.155-4.096 0.597-1.088 1.067-2.219 1.771-3.264 3.115-4.672 7.147-8.704 11.819-11.819 1.045-0.704 2.197-1.195 3.307-1.792 1.344-0.725 2.624-1.536 4.053-2.133 1.408-0.576 2.88-0.917 4.331-1.344 1.216-0.363 2.389-0.832 3.648-1.088 2.731-0.512 5.525-0.811 8.32-0.811h938.667c2.795 0 5.589 0.299 8.363 0.832 1.259 0.256 2.432 0.725 3.648 1.088 1.451 0.427 2.923 0.768 4.331 1.344 1.408 0.597 2.709 1.387 4.053 2.133 1.109 0.597 2.24 1.088 3.307 1.792 4.672 3.136 8.704 7.147 11.819 11.819 0.704 1.045 1.173 2.176 1.771 3.264 0.747 1.344 1.557 2.645 2.155 4.096 0.576 1.408 0.917 2.859 1.344 4.309 0.363 1.216 0.832 2.389 1.088 3.648 0.491 2.752 0.789 5.547 0.789 8.341v682.667c0 0.683-0.256 1.301-0.299 1.984zM878.315 746.667l-323.477-323.499c-23.616-23.595-62.037-23.595-85.675 0l-323.477 323.499h732.629zM85.333 686.315l238.336-238.315-238.336-238.336v476.651zM145.664 149.333l238.336 238.336 24.832-24.832c3.563-3.563 7.253-6.891 11.072-10.005 53.419-43.563 130.773-43.563 184.192 0 3.819 3.115 7.509 6.443 11.072 10.005l24.832 24.832 238.336-238.336h-732.672zM938.667 209.664l-238.336 238.336 238.336 238.315v-476.651z" />
<glyph unicode="&#xe920;" glyph-name="1072668" horiz-adv-x="1026" d="M1005.98-26.239h-432.54c-28.712 0-52.070 23.358-52.070 52.070 0 28.705 23.358 52.063 52.070 52.063h140.783c89.119 0 161.62 72.501 161.62 161.62 0 43.17-16.814 83.757-47.342 114.286l-96.947 96.947c19.288 15.225 31.796 25.706 37.597 31.507 60.775 60.775 60.775 159.656 0 220.431s-159.656 60.775-220.423 0c-5.926-5.918-16.947-19.194-31.89-38.16-66.333 58.975-150.865 91.233-240.36 91.233h-194.16c-22.912 0-41.55 18.638-41.55 41.542 0 22.912 18.638 41.55 41.55 41.55h138.677c55.209 0 100.125 44.916 100.125 100.125 0 11.061-8.963 20.023-20.023 20.023s-20.023-8.963-20.023-20.023c0-33.127-26.951-60.078-60.078-60.078h-138.677c-44.994 0-81.597-36.603-81.597-81.597 0-44.986 36.603-81.597 81.597-81.597h194.16c80.485 0 156.47-29.315 215.757-82.881-139.945-182.528-471.734-644.274-488.477-667.585-5.714-7.961-4.83-18.904 2.106-25.84 3.883-3.875 9.010-5.863 14.168-5.863 4.070 0 8.164 1.237 11.679 3.757 1.605 1.151 162.317 116.611 331.624 239.906 8.939 6.513 10.912 19.037 4.399 27.977-6.513 8.947-19.045 10.912-27.977 4.399-85.988-62.622-169.761-123.217-231.569-167.828 177.057 245.448 433.057 596.822 468.853 632.618 45.159 45.159 118.63 45.159 163.789 0s45.159-118.63 0-163.789c-4.462-4.47-15.264-13.667-37.777-31.327l-64.509 64.509 33.871 33.871c7.82 7.82 7.82 20.493 0 28.321-7.828 7.82-20.501 7.82-28.329 0l-96.047-96.055c-7.82-7.82-7.82-20.501 0-28.321 3.906-3.914 9.033-5.871 14.153-5.871 5.127 0 10.254 1.957 14.16 5.871l33.871 33.863 60.877-60.885c-41.072-31.397-104.266-78.654-200.517-149.339-8.908-6.544-10.834-19.076-4.29-27.992 6.552-8.908 19.084-10.834 28-4.282 91.115 66.912 159.256 117.691 205.37 153.049l100.509-100.509c22.967-22.967 35.609-53.495 35.609-85.965 0-67.037-54.536-121.573-121.573-121.573h-140.767c-50.795 0-92.117-41.323-92.117-92.117s41.323-92.117 92.117-92.117h432.54c11.053 0 20.023 8.971 20.023 20.031 0 11.053-8.971 20.023-20.023 20.023zM424.016 252.243c-1.080 0.72-2.239 1.346-3.444 1.84-1.221 0.501-2.466 0.885-3.742 1.143-2.583 0.524-5.252 0.524-7.836 0-1.276-0.258-2.536-0.642-3.742-1.143-1.198-0.493-2.38-1.119-3.46-1.84-1.104-0.72-2.129-1.558-3.045-2.481-0.924-0.924-1.761-1.941-2.481-3.045-0.72-1.080-1.346-2.239-1.847-3.468-0.501-1.198-0.877-2.458-1.135-3.742-0.266-1.284-0.407-2.599-0.407-3.906 0-1.299 0.141-2.622 0.407-3.922 0.258-1.26 0.634-2.521 1.135-3.75 0.501-1.198 1.127-2.356 1.847-3.444 0.72-1.096 1.558-2.121 2.481-3.037 0.916-0.947 1.941-1.769 3.045-2.505 1.080-0.72 2.262-1.346 3.46-1.847 1.205-0.493 2.466-0.877 3.742-1.135 1.284-0.266 2.607-0.384 3.906-0.384 1.323 0 2.63 0.117 3.93 0.384 1.276 0.258 2.521 0.642 3.742 1.135 1.205 0.501 2.364 1.127 3.444 1.847 1.104 0.736 2.129 1.558 3.045 2.505 3.75 3.718 5.886 8.885 5.886 14.153s-2.137 10.434-5.886 14.16c-0.916 0.924-1.941 1.761-3.045 2.481z" />
<glyph unicode="&#xe921;" glyph-name="1233149" d="M936.547 567.461c-16.813 39.531-51.813 77.32-101.227 109.266-9.305 6.016-21.703 3.344-27.711-5.953-6.016-9.297-3.352-21.703 5.945-27.711 42.664-27.586 72.438-59.148 86.102-91.289 2.328-5.477 0-9.961-1.109-11.641-1.141-1.727-4.469-5.75-10.672-5.75h-124.211v39.914c0 43.203-35.148 78.352-78.352 78.352h-345.102c-42.656 0-77.43-34.258-78.313-76.703-0.398-1.57-0.625-3.211-0.625-4.906v-36.656h-124.43c-6.195 0-9.523 4.023-10.664 5.75-1.109 1.68-3.438 6.164-1.109 11.641 45.633 107.328 232.75 171.469 387.289 171.469 50.523 0 100.32-5.773 147.992-17.148 10.766-2.57 21.578 4.070 24.148 14.836 2.57 10.773-4.070 21.578-14.836 24.148-45.719 10.914-93.234 16.961-141.453 18.055v40.805c0 11.070-8.977 20.039-20.039 20.039-0.031 0-0.055 0-0.086 0s-0.055 0-0.086 0c-26.445 0-47.969 21.523-47.969 47.969 0 26.453 21.516 47.969 47.969 47.969 26.445 0 47.969-21.516 47.969-47.969 0-11.070 8.977-20.039 20.039-20.039 11.070 0 20.047 8.969 20.047 20.039 0 48.555-39.5 88.055-88.055 88.055s-88.055-39.5-88.055-88.055c0-41.711 29.172-76.727 68.18-85.766v-23.297c-87.883-3.125-174.523-23.125-246.32-57.133-76.578-36.273-131.133-85.391-153.625-138.289-6.891-16.219-5.188-34.695 4.563-49.438 9.828-14.852 26.313-23.727 44.102-23.727h124.43v-538.258c0-11.063 8.969-20.039 20.039-20.039h383.711c11.063 0 20.039 8.977 20.039 20.039v54.109h58.555c11.070 0 20.047 8.977 20.047 20.047v464.109h124.211c17.797 0 34.281 8.867 44.102 23.719 9.758 14.742 11.461 33.219 4.57 49.438zM301.352-23.914v49.367c0.375 1.523 0.594 3.102 0.594 4.742v544.102c0 21.102 17.164 38.266 38.266 38.266h345.102c21.102 0 38.266-17.164 38.266-38.266v-39.914h-38.516v25.758c0 11.070-8.969 20.047-20.039 20.047s-20.039-8.977-20.039-20.047v-45.719c0-0.031-0.008-0.055-0.008-0.078 0-0.031 0.008-0.055 0.008-0.078v-538.18zM723.578 50.234h-38.516v444.070h38.516zM366.188 250.875c-11.063 0-20.039-8.977-20.039-20.047v-186.695c0-11.070 8.977-20.039 20.039-20.039 11.070 0 20.047 8.969 20.047 20.039v186.695c0 11.070-8.977 20.047-20.047 20.047zM366.18 294.742c5.289 0 10.445 2.141 14.188 5.875 3.727 3.742 5.859 8.898 5.859 14.164 0 5.297-2.133 10.445-5.859 14.172-3.742 3.75-8.898 5.875-14.188 5.875-5.273 0-10.438-2.125-14.172-5.875-3.727-3.727-5.867-8.875-5.867-14.172 0-5.266 2.141-10.422 5.867-14.164 3.734-3.734 8.898-5.875 14.172-5.875zM745.625 678.898c5.273 0 10.445 2.141 14.172 5.875 3.727 3.727 5.867 8.898 5.867 14.164 0 5.273-2.141 10.445-5.867 14.172s-8.898 5.875-14.172 5.875c-5.289 0-10.445-2.148-14.172-5.875s-5.875-8.898-5.875-14.172c0-5.266 2.148-10.438 5.875-14.164 3.727-3.734 8.898-5.875 14.172-5.875z" />
<glyph unicode="&#xe922;" glyph-name="1485715" d="M934 718h-214v152c0 49.626-40.374 90-90 90h-540c-49.626 0-90-40.374-90-90v-844c0-49.626 40.374-90 90-90h540c49.626 0 90 40.374 90 90v152h214c49.626 0 90 40.374 90 90v360c0 49.626-40.374 90-90 90zM964 628v-30h-602v30c0 16.542 13.458 30 30 30h542c16.542 0 30-13.458 30-30zM362 538h602v-60h-602v60zM90 900h540c16.542 0 30-13.458 30-30v-30h-600v30c0 16.542 13.458 30 30 30zM630-4h-540c-16.542 0-30 13.458-30 30v30h600v-30c0-16.542-13.458-30-30-30zM660 116h-600v664h600v-62h-268c-49.626 0-90-40.374-90-90v-360c0-49.626 40.374-90 90-90h268v-62zM934 238h-542c-16.542 0-30 13.458-30 30v150h602v-150c0-16.542-13.458-30-30-30zM690 358h208v-60h-208v60z" />
<glyph unicode="&#xe923;" glyph-name="1545560" d="M681.955 134.66l-85.264-82.537 20.011-115.858-104.703 54.664-104.701-54.664 20.009 115.858-85.264 82.537 117.781 16.996 52.174 104.985 52.174-104.985 117.781-16.996zM1023.866 134.394l-117.781 16.996-52.174 104.985-52.174-104.985-117.781-16.996 85.264-82.537-20.009-115.858 104.703 54.664 104.703-54.664-20.009 115.858 85.26 82.537zM222.264 152.544l-52.176 105.059-52.174-105.059-117.781-17.008 85.264-82.593-20.009-115.94 104.703 54.702 104.703-54.702-20.009 115.94 85.264 82.593-117.783 17.008zM229.302 305.242l-76.936 21.856c21.904 77.106 69.176 146.564 133.109 195.577 26.053 19.973 54.126 36.215 83.686 48.585-48.313 40.378-79.105 101.056-79.105 168.798 0 121.276 98.666 219.943 219.943 219.943s219.943-98.666 219.943-219.943c0-66.519-29.686-126.229-76.5-166.595 31.198-12.481 60.798-29.238 88.179-50.099 63.737-48.559 111.101-117.467 133.367-194.028l-76.798-22.334c-36.493 125.475-153.356 213.111-284.192 213.111-131.686 0-248.757-88.357-284.696-214.872zM370.036 740.057c0-77.176 62.788-139.964 139.964-139.964s139.964 62.788 139.964 139.964-62.788 139.964-139.964 139.964-139.964-62.788-139.964-139.964z" />
<glyph unicode="&#xe924;" glyph-name="1828859" d="M981.333 406.219h-938.667c-23.552 0-42.667 19.115-42.667 42.667s19.115 42.667 42.667 42.667h938.667c23.552 0 42.667-19.115 42.667-42.667s-19.115-42.667-42.667-42.667zM981.333 733.333h-938.667c-23.552 0-42.667 19.115-42.667 42.667s19.115 42.667 42.667 42.667h938.667c23.552 0 42.667-19.115 42.667-42.667s-19.115-42.667-42.667-42.667zM981.333 79.115h-938.667c-23.552 0-42.667 19.115-42.667 42.667s19.115 42.667 42.667 42.667h938.667c23.552 0 42.667-19.115 42.667-42.667s-19.115-42.667-42.667-42.667z" />
<glyph unicode="&#xe925;" glyph-name="2089805" d="M751.466 299.033c50.39 68.812 80.53 153.334 80.53 244.964 0 229.374-186.625 415.999-415.999 415.999s-415.997-186.625-415.997-415.999 186.625-415.999 415.999-415.999c91.629 0 176.16 30.145 244.972 80.534l272.53-272.53 90.499 90.499c0 0.002-272.534 272.532-272.534 272.532zM415.999 255.998c-158.812 0-287.999 129.186-287.999 287.999s129.186 287.999 287.999 287.999 287.999-129.186 287.999-287.999-129.188-287.999-287.999-287.999z" />
<glyph unicode="&#xe926;" glyph-name="2111532" d="M1023.744-64v0.043h0.256v375.552c0 183.723-39.552 325.248-254.336 325.248-103.253 0-172.544-56.661-200.832-110.379h-2.987v93.227h-203.648v-683.648h212.053v338.517c0 89.131 16.896 175.317 127.275 175.317 108.757 0 110.379-101.717 110.379-181.035v-332.843zM16.896 619.648h212.309v-683.648h-212.309zM122.965 960c-67.883 0-122.965-55.083-122.965-122.965s55.083-124.117 122.965-124.117 122.965 56.235 122.965 124.117c-0.043 67.883-55.125 122.965-122.965 122.965z" />
<glyph unicode="&#xe927;" glyph-name="2230769" d="M59.733 362.667h802.133c32.99 0 59.733 26.744 59.733 59.733s-26.744 59.733-59.733 59.733h-23.245c5.762 22.901 23.045 41.141 45.602 48.128 21.888 6.343 37.060 26.246 37.376 49.033v191.266c39.704-8.165 68.215-43.092 68.267-83.627v-307.2c0-9.426 7.641-17.067 17.067-17.067s17.067 7.641 17.067 17.067v307.2c-0.113 59.317-43.697 109.584-102.4 118.101v18.432c-0.104 23.485-16.173 43.888-38.98 49.493l-21.914 54.784c-7.704 19.51-26.572 32.31-47.548 32.256h-90.317c-20.959 0.065-39.822-12.704-47.548-32.188l-21.248-53.146h-22.579c-5.12 0-501.879-4.779-594.688-397.141-26.262-10.96-41.146-38.926-35.569-66.832s30.066-48.003 58.524-48.027zM707.004 915.132c2.565 6.498 8.852 10.759 15.838 10.735h90.317c6.986 0.024 13.273-4.237 15.838-10.735l16.196-40.465h-154.385zM631.467 840.533h238.933c9.426 0 17.067-7.641 17.067-17.067v-244.173c-0.308-7.845-5.761-14.543-13.38-16.435-36.91-11.363-64.218-42.624-70.519-80.725h-730.351c94.276 353.553 553.54 358.4 558.251 358.4zM59.733 448h802.133c14.138 0 25.6-11.462 25.6-25.6s-11.462-25.6-25.6-25.6h-802.133c-14.138 0-25.6 11.462-25.6 25.6s11.462 25.6 25.6 25.6zM138.24 517.888c4.098-1.935 8.797-2.16 13.062-0.627s7.744 4.7 9.671 8.802c36.453 74.49 96.701 134.702 171.213 171.11 8.351 4.374 11.576 14.689 7.202 23.040s-14.689 11.576-23.040 7.202c-81.117-39.832-146.642-105.568-186.214-186.812-4.027-8.512-0.399-18.677 8.107-22.716zM494.933 584.533h290.133c28.277 0 51.2 22.923 51.2 51.2v85.333c0 28.277-22.923 51.2-51.2 51.2h-185.771c-11.819-0.009-23.272-4.097-32.427-11.571l-104.311-85.333c-16.744-13.698-23.072-36.442-15.809-56.819s26.551-33.991 48.184-34.009zM597.333 618.667l20.48 27.307c3.223 4.297 8.281 6.827 13.653 6.827h68.267c5.372 0 10.43-2.529 13.653-6.827l20.48-27.307zM484.181 648.943l104.294 85.333c3.053 2.497 6.876 3.86 10.82 3.857h185.771c9.426 0 17.067-7.641 17.067-17.067v-85.333c0-9.426-7.641-17.067-17.067-17.067h-8.533l-35.84 47.787c-9.694 12.863-24.853 20.443-40.96 20.48h-68.267c-16.109-0.027-31.273-7.609-40.96-20.48l-35.84-47.787h-59.733c-7.216-0.006-13.656 4.528-16.085 11.323s-0.321 14.384 5.265 18.953zM392.533 738.133c0-9.426-7.641-17.067-17.067-17.067s-17.067 7.641-17.067 17.067c0 9.426 7.641 17.067 17.067 17.067s17.067-7.641 17.067-17.067zM119.467 38.4c11.145-0.013 22.235 1.555 32.939 4.659 34.135-65.183 113.893-91.436 180.070-59.273 28.948-30.541 69.178-47.839 111.258-47.839s82.31 17.298 111.258 47.839c66.164-32.172 145.918-5.942 180.070 59.221 10.706-3.087 21.796-4.638 32.939-4.608 65.98 0 119.467 53.487 119.467 119.467s-53.487 119.467-119.467 119.467c-9.426 0-17.067-7.641-17.067-17.067s7.641-17.067 17.067-17.067c34.852 0.058 66.237-21.083 79.278-53.404s5.116-69.323-20.018-93.468c-25.134-24.145-62.424-30.579-94.195-16.252-4.296 1.933-9.199 2.005-13.549 0.198s-7.76-5.331-9.423-9.738c-10.765-28.725-33.875-51.087-62.939-60.901s-61-6.039-86.974 10.281c-7.394 4.642-17.099 2.956-22.494-3.908-22.576-28.951-57.239-45.876-93.952-45.876s-71.376 16.926-93.952 45.876c-5.395 6.864-15.1 8.551-22.494 3.908-25.975-16.32-57.911-20.095-86.974-10.281s-52.174 32.176-62.939 60.901c-1.662 4.407-5.072 7.932-9.423 9.738s-9.254 1.735-13.549-0.198c-31.771-14.327-69.062-7.893-94.195 16.252s-33.058 61.147-20.018 93.468c13.041 32.32 44.426 53.462 79.278 53.404 9.426 0 17.067 7.641 17.067 17.067s-7.641 17.067-17.067 17.067c-65.98 0-119.467-53.487-119.467-119.467s53.487-119.467 119.467-119.467zM320.41 322.27c-5.967 7.294-16.717 8.372-24.013 2.406l-187.733-153.6c-4.827-3.826-7.219-9.956-6.257-16.040s5.128-11.178 10.9-13.328 12.255-1.023 16.963 2.949l187.733 153.6c7.294 5.967 8.372 16.717 2.406 24.013zM768 140.8c7.216-0.006 13.656 4.528 16.085 11.323s0.321 14.384-5.265 18.953l-187.733 153.6c-7.307 5.791-17.909 4.647-23.812-2.571s-4.921-17.836 2.205-23.848l187.733-153.6c3.039-2.497 6.852-3.861 10.786-3.857zM426.667 311.467v-221.867c0-9.426 7.641-17.067 17.067-17.067s17.067 7.641 17.067 17.067v221.867c0 9.426-7.641 17.067-17.067 17.067s-17.067-7.641-17.067-17.067zM264.277 74.974c8.078-4.853 18.56-2.24 23.415 5.837l51.2 85.333c3.273 5.231 3.468 11.822 0.509 17.237s-8.61 8.811-14.781 8.882c-6.17 0.071-11.898-3.195-14.981-8.54l-51.2-85.333c-4.853-8.078-2.24-18.56 5.837-23.415zM554.411 189.559c-8.076-4.855-10.689-15.337-5.837-23.415l51.2-85.333c3.082-5.346 8.811-8.611 14.981-8.54s11.822 3.467 14.781 8.882c2.959 5.415 2.764 12.006-0.509 17.237l-51.2 85.333c-4.855 8.076-15.337 10.689-23.415 5.837z" />
<glyph unicode="&#xe928;" glyph-name="2737832" d="M1020.809 421.308l-50.756 248.695c-20.464 94.269-103.711 161.638-200.175 161.997h-498.688c-96.457-0.352-179.699-67.717-200.158-161.98l-65.911-308.395c-0.025-0.409-0.025-0.82 0-1.229-15.216-73.908 4.222-150.715 52.764-208.488s120.849-90.158 196.273-87.909h675.977c26.49-0.001 51.748 11.191 69.542 30.815s26.468 45.853 23.881 72.217c-4.599 39.632-33.402 72.203-72.175 81.613 55.213 38.586 82.436 106.132 69.41 172.22-0.017 0.154 0.034 0.29 0.017 0.444zM104.414 662.903c17.047 78.541 86.406 134.67 166.775 134.963h498.688c80.324-0.281 149.663-56.342 166.758-134.827l30.157-147.644c-31.151 28.017-71.563 43.524-113.459 43.537h-605.867c-67.804 0.213-132.672-27.65-179.2-76.971-1.195-1.246-2.185-2.611-3.413-3.874zM853.333 251.733h-605.867c-16.881 0.023-32.966 7.178-44.288 19.699s-16.826 29.244-15.155 46.042c4.267 31.273 31.3 54.38 62.857 53.726h602.453c9.426 0 17.067 7.641 17.067 17.067s-7.641 17.067-17.067 17.067h-602.453c-49.074 0.52-90.733-35.853-96.836-84.548-2.6-26.381 6.064-52.634 23.856-72.285s43.057-30.874 69.566-30.9h679.373c31.562 0.65 58.573-22.519 62.737-53.811 1.727-16.831-3.818-33.598-15.241-46.080-11.33-12.445-27.373-19.549-44.203-19.575h-675.977c-115.561-1.918-212.272 87.23-219.75 202.564-2.886 58.357 18.265 115.348 58.523 157.693s96.109 66.346 154.537 66.41h605.867c75.405 0 136.533-61.128 136.533-136.533s-61.128-136.533-136.533-136.533zM150.938 635.563c1.172-0.251 2.368-0.377 3.567-0.375 8.050 0.009 15 5.643 16.674 13.517 10.233 47.087 51.825 80.73 100.011 80.896h138.411c9.426 0 17.067 7.641 17.067 17.067s-7.641 17.067-17.067 17.067h-138.411c-64.281-0.231-119.76-45.115-133.41-107.93-0.94-4.429-0.082-9.050 2.386-12.847s6.343-6.456 10.773-7.394zM494.933 746.667c0-9.426-7.641-17.067-17.067-17.067s-17.067 7.641-17.067 17.067c0 9.426 7.641 17.067 17.067 17.067s17.067-7.641 17.067-17.067z" />
<glyph unicode="&#xe929;" glyph-name="2840421" d="M100 960v-1024h824v1024zM160 900h322v-158h-322zM864-4h-704v686h704zM864 742h-322v158h322zM731.42 479.84c-46.38 72.22-127.42 120.16-219.42 120.16-143.66 0-260.56-116.88-260.56-260.56 0-143.66 116.9-260.54 260.56-260.54 92 0 173.020 47.94 219.4 120.14 26.040 40.54 41.16 88.74 41.16 140.4s-15.12 99.86-41.14 140.4zM512 138.9c-110.58 0-200.56 89.96-200.56 200.54 0 110.6 89.98 200.56 200.56 200.56 61.56 0 116.72-27.88 153.52-71.66 29.34-34.88 47.040-79.86 47.040-128.9 0-49.020-17.7-94-47.060-128.88-36.78-43.78-91.94-71.66-153.5-71.66zM620.86 437.22l-11.26 10.2c-26.78 24.24-61.46 37.58-97.6 37.58-80.26 0-145.56-65.3-145.56-145.56s65.3-145.54 145.56-145.54c36.14 0 70.82 13.34 97.6 37.58l11.26 10.18c-24.48 25.3-39.54 59.78-39.54 97.78s15.060 72.48 39.54 97.78zM544.78 260.4c-10.3-4.26-21.42-6.5-32.78-6.5-47.18 0-85.56 38.38-85.56 85.54 0 47.18 38.38 85.56 85.56 85.56 11.36 0 22.48-2.24 32.78-6.52-15.080-23.34-23.36-50.78-23.36-79.040 0-28.24 8.28-55.68 23.36-79.040zM659.334 853h151.334v-60h-151.334zM311.974 853h60.446v-60h-60.446zM214.474 853h60.446v-60h-60.446z" />
<glyph unicode="&#xe92a;" glyph-name="2840435" d="M318.666 228.036h60v-59.666h-60zM421.334 309.036h60v-59.666h-60zM550 678.532h60v-59.666h-60zM726 793.31h60v-59.666h-60zM334 913.932h60v-59.666h-60zM1023.754 586.74h-187.956l-23.924-125.598c-2.166 1.78-4.43 3.762-6.93 5.958-15.112 13.28-35.806 31.464-74.426 31.464s-59.316-18.186-74.426-31.464c-12.134-10.662-18.818-16.536-34.822-16.536s-22.69 5.874-34.824 16.536c-15.112 13.278-35.808 31.464-74.43 31.464-38.62 0-59.316-18.186-74.428-31.464-12.134-10.664-18.818-16.536-34.822-16.536-16.008 0-22.694 5.874-34.832 16.538-15.112 13.278-35.81 31.462-74.434 31.462s-59.32-18.184-74.432-31.462c-2.504-2.2-4.77-4.184-6.94-5.968l-23.926 125.606h-187.956l112.528-590.74h-65.154v-60h928.76v60h-65.154zM258.67 422.028c12.136 10.664 18.822 16.538 34.832 16.538s22.696-5.874 34.832-16.538c15.112-13.278 35.81-31.462 74.432-31.462 38.62 0 59.316 18.186 74.428 31.464 12.134 10.664 18.818 16.536 34.822 16.536 16.006 0 22.69-5.874 34.824-16.536 15.112-13.278 35.808-31.464 74.428-31.464s59.316 18.186 74.426 31.464c12.134 10.662 18.818 16.536 34.822 16.536s22.688-5.874 34.822-16.536c8.806-7.738 19.542-17.122 34.586-23.622l-52.912-277.772h-470.024l-52.91 277.77c15.046 6.5 25.784 15.884 34.592 23.622zM173.852-4l-101.098 530.74h65.798l88.786-466.104h569.326l88.786 466.104h65.798l-101.102-530.74zM373.95 563.588c63.38 0 114.944 51.564 114.944 114.944s-51.564 114.944-114.944 114.944-114.944-51.564-114.944-114.944 51.564-114.944 114.944-114.944zM373.95 733.476c30.296 0 54.944-24.648 54.944-54.944s-24.648-54.944-54.944-54.944-54.944 24.648-54.944 54.944 24.648 54.944 54.944 54.944zM589.486 755.866c56.28 0 102.068 45.788 102.068 102.068s-45.788 102.066-102.068 102.066-102.068-45.788-102.068-102.068 45.788-102.066 102.068-102.066zM589.486 900c23.196 0 42.068-18.872 42.068-42.068s-18.872-42.068-42.068-42.068-42.068 18.872-42.068 42.068 18.872 42.068 42.068 42.068z" />
<glyph unicode="&#xe92b;" glyph-name="2979096" d="M872.286 279.84l-178.934 74.824h-124.266c-17.886 0-34.912 8.586-45.438 22.82l-362.684 496.738-22.934-11.936c-25.932-13.498-50.6-36.3-73.324-67.774-42.33-58.636-64.706-128.876-64.706-203.13v-77.698l123.344-490.216h144.716l1.424 302.806c21.732-22.416 41.996-46.428 60.628-71.906l109.122-149.218c34.302-51.132 91.474-81.75 153.078-81.954l431.688-1.418v30.178c0 99.896-59.552 189.346-151.714 227.884zM208.748 202.71h-68.474l-66.324 263.598c48.63-23.030 94.11-51.654 135.638-85.262zM170.238 83.624l-14.828 58.93h53.054l-0.278-58.93zM592.512 83.352c-41.74 0.138-80.464 20.962-103.588 55.708l-0.368 0.554-109.89 150.266c-81.328 111.21-191.126 196.664-318.512 248.128v53.376c0 61.532 18.44 119.596 53.326 167.918 10.314 14.286 20.782 26.016 31.294 35.082l330.4-452.518c21.928-29.652 57.036-47.354 93.912-47.354h112.196l167.796-70.168c60.28-25.208 102.118-79.2 112.342-142.202z" />
<glyph unicode="&#xe92c;" glyph-name="3022225" d="M847.182 697.331l-67.294 56.36-15.32 86.433c-5.093 28.728-29.948 49.56-59.116 49.56-0.018 0-0.040 0-0.058 0l-87.778-0.078-67.292 56.354c-22.379 18.745-54.841 18.717-77.188-0.070l-67.19-56.482-87.778-0.082c-29.192-0.028-54.041-20.916-59.082-49.668l-15.164-86.459-67.19-56.484c-22.345-18.785-27.953-50.756-13.333-76.024l43.958-75.98-15.162-86.455c-5.045-28.754 11.212-56.851 38.654-66.811l74.012-26.862 0.286-368.514c0-22.423 12.342-42.809 32.21-53.202 8.786-4.595 18.336-6.869 27.851-6.869 12.002 0 23.944 3.616 34.219 10.747l111.862 77.655 111.86-77.655c18.419-12.785 42.203-14.272 62.070-3.879s32.21 30.779 32.21 53.202v368.080l76.198 27.811c27.421 10.011 43.626 38.138 38.53 66.881l-15.322 86.431 43.82 76.060c14.574 25.295 8.906 57.257-13.473 76zM528.409 85.606c-10.293 7.145-23.944 7.145-34.237 0l-128.98-89.523c0 0.006 0 0.010 0 0.010l-0.216 279c11.424-12.531 27.551-19.565 44.274-19.565 6.873 0 13.845 1.187 20.63 3.66l82.456 30.096 82.512-29.944c22.199-8.049 46.392-2.304 62.543 13.575l-0.008-276.838zM764.812 575.244c-7.035-12.212-9.554-26.576-7.093-40.451l15.322-86.431-82.464-30.098c-10.335-3.775-19.371-10.353-26.2-18.851-0.326-0.39-0.624-0.807-0.931-1.213-1.549-2.031-3.016-4.131-4.301-6.362l-43.8-76.064s-0.006 0.002-0.020 0.008l-82.51 29.942c-13.247 4.807-27.831 4.795-41.070-0.036l-82.456-30.098-43.958 75.978c-2.362 4.083-5.222 7.811-8.43 11.196-0.29 0.312-0.562 0.64-0.867 0.941-6.218 6.282-13.781 11.182-22.191 14.236l-82.512 29.946 15.164 86.459c2.432 13.881-0.114 28.241-7.171 40.437l-43.958 75.978 67.19 56.484c10.789 9.068 18.070 21.709 20.502 35.586l15.164 86.457 87.774 0.082c14.094 0.012 27.797 5.013 38.582 14.082l67.19 56.482 67.292-56.356c10.789-9.038 24.481-14.014 38.558-14.014l87.828 0.080 15.32-86.433c2.46-13.875 9.765-26.496 20.568-35.546l67.294-56.36zM511.994 773.293c-95.455 0-173.114-77.659-173.114-173.114s77.659-173.114 173.114-173.114 173.116 77.659 173.116 173.114-77.661 173.114-173.116 173.114zM511.994 487.107c-62.348 0-113.073 50.724-113.073 113.073s50.724 113.073 113.073 113.073 113.075-50.724 113.075-113.073-50.726-113.073-113.075-113.073z" />
<glyph unicode="&#xe92d;" glyph-name="3037040" d="M997.452 933.45c-19.042 19.044-45.358 28.586-72.182 26.184-68.522-6.134-191.846-24.324-313.904-55.394-145.586-37.058-244.076-80.52-292.736-129.182-69.254-69.254-117.926-173.608-130.198-279.146-6.352-54.624-3.002-106.468 9.956-154.090 7.546-27.734 18.2-53.252 31.798-76.42-18.83-20.386-36.34-40-52.338-58.412-106.118-122.136-169.81-217.248-172.47-221.238-9.802-14.704-5.83-34.572 8.876-44.376 5.456-3.636 11.622-5.378 17.72-5.378 10.34 0 20.49 5.004 26.656 14.252 0.628 0.942 64.064 95.68 167.53 214.762 13.368 15.384 27.834 31.642 43.236 48.476 1.322-1.376 2.628-2.766 3.98-4.118 35.506-35.506 80.068-60.736 132.448-74.988 32.010-8.71 65.918-13.078 101.308-13.078 17.258 0 34.876 1.040 52.784 3.122 105.538 12.272 209.892 60.944 279.146 130.198 48.66 48.66 92.124 147.15 129.182 292.736 31.072 122.060 49.26 245.384 55.394 313.904 2.4 26.834-7.142 53.144-26.186 72.186zM959.89 866.976c-13.75-153.58-76.582-477.59-166.084-567.092-117.864-117.862-356.1-164.328-475.176-45.256-1.828 1.828-3.616 3.686-5.366 5.57 89.26 92.568 202.788 195.342 327.582 272.596 15.028 9.302 19.668 29.024 10.366 44.052-9.3 15.024-29.022 19.67-44.052 10.364-125.69-77.808-239.846-179.876-330.636-272.978-61.708 127.038-13.146 315.066 87.36 415.572 89.5 89.5 413.512 152.334 567.094 166.084 0.872 0.078 1.716 0.116 2.54 0.116 9.386 0 15.658-4.786 18.682-7.808 3.286-3.288 8.658-10.418 7.69-21.22z" />
<glyph unicode="&#xe92e;" glyph-name="3039848" d="M895.466 930c0 16.568-13.464 30-30.034 30-158.736 0-295.248-96.962-353.432-234.768-58.186 137.806-194.704 234.768-353.466 234.768-16.568 0-30-13.432-30-30 0-201.348 155.99-366.944 353.466-382.298v-196.102c0-16.568 13.432-30 30-30s30 13.432 30 30v196.102c197.476 15.354 353.466 180.95 353.466 382.298zM190.056 898.48c153.256-14.878 275.544-137.166 290.422-290.422-153.244 14.89-275.53 137.176-290.422 290.422zM543.522 608.056c14.876 153.246 137.156 275.53 290.422 290.42-14.894-153.244-137.178-275.528-290.422-290.42zM324.346 356.748c-37.58 37.578-97.488 38.158-135.812 2.89v120.53c0 87.362-71.084 158.5-158.5 158.5h-0.034c-16.568 0-30-13.432-30-30v-385.6c0-7.956 3.162-15.586 8.788-21.212l184.012-184.016v-51.84c0-16.568 13.432-30 30-30h224.934c16.568 0 30 13.432 30 30v171.688c0 42.35-16.49 82.162-46.43 112.102zM417.734-4h-164.934v34.266c0 7.956-3.162 15.586-8.788 21.212l-184.012 184.016v338.45c56.684-18.194 68.534-70.718 68.534-93.778v-192.834c0-7.958 3.162-15.586 8.788-21.212l128.534-128.534c11.716-11.714 30.712-11.716 42.426 0 11.716 11.714 11.716 30.71 0 42.426l-80.334 80.334c-14.912 14.914-14.924 39.048 0 53.974 14.922 14.92 39.046 14.926 53.974 0l106.956-106.958c18.61-18.608 28.858-43.352 28.858-69.674v-141.688zM994 638.666h-0.032c-87.416 0-158.5-71.14-158.5-158.5v-120.53c-38.324 35.268-98.232 34.688-135.812-2.89l-106.958-106.958c-29.94-29.94-46.43-69.752-46.43-112.102v-171.686c0-16.568 13.432-30 30-30h224.932c16.568 0 30 13.432 30 30v51.84l184.012 184.014c5.626 5.626 8.788 13.256 8.788 21.212v385.6c0 16.57-13.432 30-30 30zM964 235.494l-184.012-184.014c-5.626-5.626-8.788-13.256-8.788-21.212v-34.268h-164.934v141.688c0 26.322 10.248 51.066 28.858 69.674l106.956 106.958c14.928 14.926 39.054 14.92 53.974 0 14.924-14.926 14.912-39.060 0-53.974l-80.334-80.334c-11.714-11.716-11.714-30.71 0-42.426s30.71-11.714 42.426 0l128.534 128.534c5.626 5.626 8.788 13.256 8.788 21.212v192.834c0 23.060 11.85 75.584 68.534 93.778v-338.45z" />
<glyph unicode="&#xe92f;" glyph-name="3096677" d="M192.012 159.991c17.671 0 31.999 14.327 31.999 31.999 0 70.621 57.142 127.995 127.995 127.995 17.671 0 31.999 14.327 31.999 31.999s-14.327 31.999-31.999 31.999c-70.621 0-127.995 57.142-127.995 127.995 0 17.671-14.327 31.999-31.999 31.999s-31.999-14.327-31.999-31.999c0-70.601-57.134-127.995-127.995-127.995-17.671 0-31.999-14.327-31.999-31.999s14.327-31.999 31.999-31.999c70.577 0 127.995-57.418 127.995-127.995 0-17.671 14.325-31.999 31.999-31.999zM192.012 405.75c13.975-20.957 32.299-39.454 53.764-53.766-21.221-14.151-39.67-32.595-53.834-53.866-14.179 21.295-32.503 39.618-53.8 53.798 20.533 13.671 39.228 31.875 53.87 53.834zM966.976 846.108l-100.568 44.686-59.786 59.786c-4.612 4.616-10.992 8.016-18.121 9.026-3.818 0.542-389.155 0.442-391.659 0.194-4.068-0.4-8.274-1.67-11.924-3.622-5.63-3.020-2.718-0.768-67.335-65.385l-100.584-44.694c-34.619-15.405-56.986-49.84-56.986-87.731v-150.394c0-17.671 14.327-31.999 31.999-31.999s31.999 14.327 31.999 31.999v150.394c0 12.638 7.462 24.125 18.993 29.255l74.963 33.309 84.073-224.195c7.63-20.343 32.957-27.347 49.952-13.749l108.006 86.405v-669.394h-303.988c-17.643 0-31.999 14.355-31.999 31.999v63.998c0 17.671-14.327 31.999-31.999 31.999s-31.999-14.327-31.999-31.999v-63.998c0-52.932 43.064-95.996 95.996-95.996h671.974c52.932 0 95.996 43.064 95.996 95.996v726.372c0 37.891-22.369 72.325-57.004 87.741zM591.997 781.221l-114.742 114.742h229.483zM783.989 882.709l26.801-26.801-73.267-195.38-97.62 78.095zM446.471 660.528l-73.267 195.38 26.801 26.801 144.086-144.086zM959.983 31.996c0-17.643-14.355-31.999-31.999-31.999h-303.988v669.394l108.006-86.405c16.977-13.583 42.314-6.612 49.952 13.749l84.073 224.197 74.947-33.301c11.548-5.14 19.009-16.625 19.009-29.263zM719.992 431.981c0-17.672-14.326-31.999-31.999-31.999s-31.999 14.326-31.999 31.999c0 17.672 14.326 31.999 31.999 31.999s31.999-14.326 31.999-31.999zM719.992 175.991c0-17.672-14.326-31.999-31.999-31.999s-31.999 14.326-31.999 31.999c0 17.672 14.326 31.999 31.999 31.999s31.999-14.326 31.999-31.999z" />
<glyph unicode="&#xe930;" glyph-name="4839471" d="M941.835 287.861c-62.693 0-124.251 9.805-182.584 29.083-28.584 9.749-63.723 0.805-81.168-17.112l-115.139-86.917c-133.528 71.277-215.779 153.501-286.083 286.027l84.36 112.139c21.917 21.888 29.779 53.861 20.36 83.861-19.36 58.64-29.195 120.168-29.195 182.888 0.003 45.309-36.859 82.171-82.165 82.171h-188.053c-45.307 0-82.168-36.861-82.168-82.168 0-519.333 422.501-941.832 941.835-941.832 45.307 0 82.168 36.861 82.168 82.168v187.528c-0.003 45.304-36.864 82.165-82.168 82.165z" />
<glyph unicode="&#xe931;" glyph-name="bright-lightbulb" d="M512 710.558c-139.111 0-251.926-108.043-251.926-241.337 0-158.284 109.917-198.634 109.917-290.729 0-22.768 17.408-43.945 43.553-59.501-5.469-4.554-8.519-9.543-8.519-14.772 0-7.015 5.512-13.573 14.99-19.195-8.889-5.512-14.053-11.852-14.053-18.628 0-6.841 5.273-13.247 14.358-18.802-9.281-5.578-14.685-12.092-14.685-18.998 0-8.453 7.974-16.188 21.308-22.484-5.164-4.684-8.127-9.87-8.127-15.316 0-16.123 25.121-29.827 60.438-35.317 6.209-11.504 18.802-19.478 33.487-19.478 14.663 0 27.234 7.909 33.443 19.369 35.666 5.403 61.070 19.195 61.070 35.361 0 5.381-2.854 10.501-7.909 15.12 13.617 6.34 21.744 14.183 21.744 22.702 0 6.841-5.251 13.268-14.358 18.802 9.26 5.599 14.685 12.070 14.685 18.977 0 7.015-5.534 13.573-14.99 19.216 8.933 5.49 14.075 11.852 14.075 18.628 0 5.425-3.29 10.545-9.172 15.207 25.731 15.534 42.834 36.494 42.834 59.065 0 92.138 109.786 132.466 109.786 290.729-0.022 133.338-112.814 241.381-251.948 241.381zM643.551 319.869c-25.099-36.864-53.488-78.521-55.231-135.778-8.628-9.608-39.413-25.23-76.234-25.23-36.842 0-67.649 15.621-76.255 25.273-1.743 57.279-30.175 98.936-55.318 135.778-28.040 41.091-54.512 79.894-54.512 149.33 0 96.714 83.445 175.409 185.998 175.409 102.574 0 186.019-78.695 186.019-175.409 0-69.458-26.471-108.283-54.468-149.373zM512 795.201c18.127 0 32.964 19.609 32.964 43.574v77.65c0 23.966-14.837 43.574-32.964 43.574s-32.964-19.609-32.964-43.574v-77.65c0-23.988 14.837-43.574 32.964-43.574zM343.084 749.927c15.709 9.063 18.715 33.465 6.754 54.207l-38.803 67.257c-11.983 20.763-34.642 30.328-50.35 21.264s-18.737-33.465-6.776-54.207l38.847-67.257c11.983-20.763 34.62-30.328 50.329-21.264zM198.155 676.613l-67.214 38.825c-20.763 11.983-45.165 8.955-54.228-6.754s0.479-38.346 21.264-50.329l67.235-38.825c20.763-11.983 45.165-8.955 54.207 6.754s-0.501 38.346-21.264 50.329zM926.045 256.381l-67.235 38.803c-20.763 12.005-45.165 8.976-54.207-6.754-9.063-15.709 0.458-38.346 21.286-50.329l67.192-38.825c20.763-11.983 45.165-8.955 54.228 6.754 9.063 15.73-0.479 38.367-21.264 50.35zM174.167 457.369c0 18.149-19.609 32.964-43.574 32.964h-77.65c-23.966 0-43.574-14.837-43.574-32.964s19.609-32.964 43.574-32.964h77.65c23.966 0 43.574 14.837 43.574 32.964zM971.057 490.333h-77.628c-23.988 0-43.574-14.837-43.574-32.964s19.587-32.964 43.574-32.964h77.628c23.988 0 43.574 14.837 43.574 32.964s-19.609 32.964-43.574 32.964zM165.191 295.184l-67.235-38.803c-20.763-11.983-30.328-34.62-21.264-50.35 9.063-15.709 33.465-18.715 54.228-6.754l67.214 38.825c20.763 11.983 30.328 34.62 21.264 50.329-9.042 15.687-33.443 18.759-54.207 6.754zM858.809 619.531l67.235 38.825c20.763 11.983 30.328 34.62 21.264 50.329s-33.465 18.737-54.228 6.754l-67.214-38.825c-20.741-11.983-30.328-34.62-21.264-50.329 9.042-15.709 33.443-18.737 54.207-6.754zM763.338 892.677c-15.73 9.063-38.389-0.501-50.372-21.264l-38.803-67.257c-11.983-20.763-8.955-45.143 6.754-54.207 15.73-9.063 38.367 0.501 50.35 21.264l38.847 67.257c11.961 20.741 8.911 45.143-6.776 54.207z" />
<glyph unicode="&#xe932;" glyph-name="express-delivery" horiz-adv-x="1264" d="M392.004 407.33h-349.331c-23.589 0-42.673-19.097-42.673-42.662 0-23.561 19.082-42.665 42.673-42.665h349.331c23.581 0 42.665 19.106 42.665 42.665-0.002 23.565-19.084 42.662-42.665 42.662zM434.668 578.002h-263.995c-23.589 0-42.673-19.108-42.673-42.676 0-23.559 19.084-42.662 42.673-42.662h263.999c23.581 0 42.665 19.106 42.665 42.662-0.002 23.571-19.084 42.676-42.669 42.676zM477.333 748.662h-178.662c-23.589 0-42.671-19.103-42.671-42.662 0-23.565 19.082-42.673 42.671-42.673h178.662c23.589 0 42.673 19.108 42.673 42.673 0 23.561-19.084 42.662-42.673 42.662zM977.206 364.209c-91.665 0-166.205-74.562-166.205-166.227 0-91.647 74.539-166.209 166.205-166.209 91.626 0 166.209 74.562 166.209 166.209 0 91.665-74.583 166.227-166.209 166.227zM977.206 117.109c-44.621 0-80.877 36.267-80.877 80.873 0 44.601 36.254 80.891 80.877 80.891 44.626 0 80.873-36.291 80.873-80.891 0.002-44.604-36.246-80.873-80.873-80.873zM1152.416 534.937l-26.747 0.228c-11.963 0.102-22.583 7.598-26.671 18.833l-105.503 291.396c-4.085 11.306-14.83 18.833-26.877 18.833h-294.201c-13.668 0-25.418-9.691-28.006-23.108l-116.914-600.655c-1.581-8.383 0.584-17.047 6.003-23.624 5.414-6.589 13.501-10.398 22.039-10.398h192.297c4.579 122.954 105.327 221.769 229.368 221.769s224.795-98.812 229.377-221.769h28.83c15.799 0 28.588 12.792 28.588 28.554v187.458c0 61.775-49.791 111.981-111.583 112.482zM995.625 623.708c-3.123-4.141-7.998-6.601-13.205-6.601h-296.293c-4.875 0-9.46 2.121-12.583 5.838-3.123 3.686-4.46 8.581-3.664 13.35l24.705 148.377c1.336 7.931 8.214 13.764 16.254 13.764h227.957c7.29 0 13.746-4.807 15.789-11.833l43.671-148.374c1.455-4.979 0.494-10.356-2.629-14.519z" />
<glyph unicode="&#xe933;" glyph-name="1621561" d="M942.773 309.977c-33.938 29.82-75.094 55.586-122.336 76.578-20.195 8.969-43.828-0.125-52.797-20.313s0.125-43.82 20.313-52.797c39.836-17.703 74.164-39.086 102.016-63.563 34.336-30.172 54.031-73.859 54.031-119.883v-74c0-22.055-17.945-40-40-40h-784c-22.055 0-40 17.945-40 40v74c0 46.023 19.695 89.711 54.031 119.883 40.414 35.516 158.164 118.117 377.969 118.117 163.211 0 296 132.789 296 296s-132.789 296-296 296-296-132.789-296-296c0-95.414 45.391-180.414 115.703-234.578-128.656-28.281-208.688-82.719-250.477-119.445-51.617-45.352-81.227-110.945-81.227-179.977v-74c0-66.172 53.828-120 120-120h784c66.172 0 120 53.828 120 120v74c0 69.031-29.609 134.625-81.227 179.977zM296 664c0 119.102 96.898 216 216 216s216-96.898 216-216-96.898-216-216-216-216 96.898-216 216z" />
<glyph unicode="&#xe934;" glyph-name="983899" d="M222 484h580c22.092 0 40 17.908 40 40s-17.908 40-40 40h-580c-22.092 0-40-17.908-40-40s17.908-40 40-40zM222 668h580c22.092 0 40 17.908 40 40s-17.908 40-40 40h-580c-22.092 0-40-17.908-40-40s17.908-40 40-40zM222 300h580c22.092 0 40 17.908 40 40s-17.908 40-40 40h-580c-22.092 0-40-17.908-40-40s17.908-40 40-40zM984 960h-944c-22.092 0-40-17.908-40-40v-792c0-22.092 17.908-40 40-40h353.954l84.228-133.36c7.33-11.604 20.094-18.64 33.82-18.64s26.49 7.038 33.82 18.64l84.224 133.36h353.954c22.092 0 40 17.908 40 40v792c0 22.092-17.908 40-40 40zM944 168h-336c-13.724 0-26.49-7.038-33.82-18.64l-62.18-98.452-62.18 98.452c-7.33 11.604-20.094 18.64-33.82 18.64h-336v712h864v-712z" />
<glyph unicode="&#xe935;" glyph-name="2919521" d="M324.914 91.184c-46.854-46.888-122.866-46.888-169.722 0-46.15 46.118-46.886 120.498-2.176 167.514l252.93 252.93c-78.224 20.916-164.962 1.664-227.496-57.808l-112.462-112.462c-89.422-94.030-87.95-242.79 4.352-335.028 93.71-93.774 245.734-93.774 339.444 0l103.692 103.692c62.85 62.808 83.57 151.81 62.172 231.894zM953.67 889.66c-92.238 92.302-240.998 93.774-335.028 4.352l-112.462-112.462c-59.47-62.536-78.722-149.274-57.808-227.496l252.93 252.93c47.016 44.71 121.394 43.974 167.514-2.176 46.888-46.856 46.886-122.866 0-169.722l-250.734-250.734c80.084-21.398 169.086-0.68 231.894 62.172l103.692 103.692c93.776 93.71 93.776 245.734 0.002 339.444zM329.548 265.544c23.428-23.444 61.434-23.444 84.86 0l280.046 280.046c23.444 23.428 23.444 61.434 0 84.86-23.060 23.076-60.25 23.444-83.756 1.088l-282.24-282.24c-22.354-23.504-21.986-60.694 1.090-83.754z" />
<glyph unicode="&#xe93e;" glyph-name="arrow_left" horiz-adv-x="555" d="M11.87 419.362l475.993-472c15.552-15.42 40.461-15.104 55.629 0.708 15.168 15.817 14.857 41.143-0.7 56.567l-447.108 443.362 447.108 443.363c15.556 15.424 15.868 40.748 0.7 56.564-15.172 15.82-40.077 16.13-55.629 0.71l-475.991-471.999c-7.59-7.526-11.872-17.856-11.872-28.638s4.282-21.111 11.87-28.638z" />
<glyph unicode="&#xe93f;" glyph-name="arrow_right" horiz-adv-x="555" d="M542.797 476.638l-475.994 472c-15.552 15.422-40.459 15.106-55.628-0.71s-14.856-41.14 0.698-56.564l447.109-443.363-447.109-443.362c-15.554-15.424-15.867-40.747-0.698-56.563 15.171-15.821 40.076-16.132 55.626-0.713l475.991 472c7.59 7.526 11.874 17.856 11.874 28.638s-4.284 21.111-11.87 28.638z" />
</font>
</defs>
</svg>
